VERSION	0.00.00	1.03.00
FES_MODE	0
BPM_DEF	200.000	200.000	200.000	160.000
MET_DEF	4	4
RESOLUTION	384
CLK_DEF	384
COMPATIBLE_CODE	MA2

BPM	0	0	200.000
BPM	105	0	160.000
MET	0	0	4	4

TTP	1	0	5	E	0	M1
TTP	1	192	4	E	0	M1
HLD	2	0	2	768
TTP	3	0	3	E	0	M1
TTP	3	192	4	E	0	M1
HLD	4	0	5	768
TTP	5	0	5	E	0	M1
TTP	5	192	4	E	0	M1
HLD	6	0	2	384
TTP	6	192	3	B	0	M1
HLD	7	0	5	384
TTP	7	192	4	B	0	M1
TAP	8	0	2
HLD	9	0	1	336
HLD	9	0	3	336
HLD	10	0	0	336
HLD	10	0	3	336
HLD	11	0	2	336
HLD	11	0	3	336
HLD	12	0	1	288
HLD	12	0	3	288
HLD	13	0	4	336
HLD	13	0	6	336
HLD	14	0	4	336
HLD	14	0	7	336
HLD	15	0	4	720
HLD	15	0	5	720
HLD	17	0	3	288
TAP	17	0	6
STR	17	288	4
SCL	17	288	4	96	288	5
BRK	19	0	2
BRK	19	0	6
TAP	19	96	3
TAP	19	96	5
TAP	19	192	2
TAP	19	240	2
TAP	19	288	0
TAP	19	336	0
TAP	20	0	7
TAP	20	48	7
TAP	20	96	5
TAP	20	144	5
TAP	20	192	4
TAP	20	240	4
TAP	20	288	3
TAP	20	288	4
BRK	21	0	1
BRK	21	0	5
TAP	21	96	2
TAP	21	96	4
TAP	21	192	5
TAP	21	240	5
TAP	21	288	7
TAP	21	336	7
TAP	22	0	0
TAP	22	48	0
TAP	22	96	2
TAP	22	144	2
TAP	22	192	3
TAP	22	240	3
TAP	22	288	3
TAP	22	288	4
BRK	23	0	2
BRK	23	0	6
TAP	23	96	3
TAP	23	96	5
TAP	23	192	6
TAP	23	240	6
TAP	23	288	4
TAP	23	336	4
TAP	24	0	3
TAP	24	48	3
TAP	24	96	1
TAP	24	144	1
TAP	24	192	0
TAP	24	240	0
TAP	24	288	0
TAP	24	288	7
HLD	25	0	6	192
TAP	25	96	5
HLD	25	192	4	96
TAP	25	288	2
HLD	25	336	2	96
TAP	26	48	0
TAP	26	96	0
TAP	26	192	7
TAP	26	288	0
TAP	26	288	6
BRK	27	0	1
BRK	27	0	5
TAP	27	96	2
TAP	27	96	4
TAP	27	192	5
TAP	27	240	5
TAP	27	288	0
TAP	27	336	3
TAP	28	0	2
TAP	28	48	2
TAP	28	96	7
TAP	28	144	4
TAP	28	192	5
TAP	28	240	5
TAP	28	288	3
TAP	28	288	5
BRK	29	0	2
BRK	29	0	6
TAP	29	96	3
TAP	29	96	5
TAP	29	192	2
TAP	29	240	2
TAP	29	288	7
TAP	29	336	4
TAP	30	0	5
TAP	30	48	5
TAP	30	96	0
TAP	30	144	3
TAP	30	192	2
TAP	30	240	2
TAP	30	288	2
TAP	30	288	3
BRK	31	0	1
BRK	31	0	5
TAP	31	96	2
TAP	31	96	4
TAP	31	192	5
TAP	31	240	5
TAP	31	288	0
TAP	31	336	3
TAP	32	0	1
TAP	32	48	1
TAP	32	96	7
TAP	32	144	4
TAP	32	192	5
TAP	32	240	5
TAP	32	288	4
TAP	32	288	5
TAP	33	0	3
TAP	33	0	6
TAP	33	96	1
TAP	33	96	4
TAP	33	192	2
TAP	33	192	6
TAP	33	288	1
TAP	33	288	5
TAP	34	0	0
TAP	34	48	1
TAP	34	96	2
TAP	34	144	3
TAP	34	192	4
TAP	34	240	5
TAP	34	288	6
TAP	34	336	7
HLD	35	0	7	72
HLD	35	72	5	72
HLD	35	144	4	72
HLD	35	216	2	72
STR	35	288	3
SI_	35	288	3	96	48	7
TAP	36	0	1
STR	36	96	2
SI_	36	96	2	96	48	0
TAP	36	192	5
TAP	36	288	5
HLD	37	0	0	72
HLD	37	72	2	72
HLD	37	144	3	72
HLD	37	216	5	72
STR	37	288	4
SI_	37	288	4	96	48	0
TAP	38	0	6
STR	38	96	5
SI_	38	96	5	96	48	7
TAP	38	192	2
TAP	38	288	2
TAP	38	336	1
TAP	39	0	0
TAP	39	48	0
TAP	39	96	5
TAP	39	144	3
TAP	39	192	6
TAP	39	240	4
TAP	39	288	3
TAP	39	336	2
TAP	40	0	7
TAP	40	48	7
TAP	40	96	2
TAP	40	144	4
TAP	40	192	1
TAP	40	240	3
TAP	40	288	4
TAP	40	336	5
TAP	41	0	0
TAP	41	48	0
TAP	41	96	5
TAP	41	144	4
TAP	41	192	6
TAP	41	240	4
TAP	41	288	3
TAP	41	336	1
TAP	42	0	0
TAP	42	24	7
TAP	42	48	0
TAP	42	72	7
STR	42	96	0
SCR	42	96	0	96	96	5
TAP	42	120	7
TAP	42	144	0
TAP	42	168	7
XTP	42	288	0
HLD	43	0	7	72
HLD	43	72	5	72
HLD	43	144	4	72
HLD	43	216	2	72
STR	43	288	3
SCR	43	288	3	96	48	6
TAP	44	0	1
STR	44	96	2
SCL	44	96	2	96	48	0
TAP	44	192	5
TAP	44	288	6
TAP	44	336	6
HLD	45	0	0	72
HLD	45	72	2	72
HLD	45	144	3	72
HLD	45	216	5	72
STR	45	288	4
SCL	45	288	4	96	48	1
TAP	46	0	6
STR	46	96	5
SCR	46	96	5	96	48	7
TAP	46	192	2
TAP	46	288	2
TAP	46	336	1
TAP	47	0	0
TAP	47	48	0
TAP	47	96	5
TAP	47	144	3
TAP	47	192	5
TAP	47	240	4
TAP	47	288	2
TAP	47	288	3
TAP	47	336	1
TAP	48	0	7
TAP	48	48	7
TAP	48	96	2
TAP	48	144	4
TAP	48	192	2
TAP	48	240	3
TAP	48	288	4
TAP	48	288	5
TAP	48	336	6
TAP	49	0	0
TAP	49	48	0
TAP	49	96	5
TAP	49	144	3
TAP	49	192	6
TAP	49	240	4
TAP	49	288	2
TAP	49	288	3
TAP	49	336	1
TAP	50	0	0
TAP	50	24	7
TAP	50	48	0
TAP	50	72	7
STR	50	96	0
SF_	50	96	0	96	96	4
TAP	50	120	7
TAP	50	144	0
TAP	50	168	7
HLD	51	0	4	96
HLD	51	0	6	96
TAP	51	144	4
TAP	51	144	6
TAP	51	192	7
TAP	51	216	0
TAP	51	240	7
TAP	51	264	0
TAP	51	288	7
HLD	52	0	1	96
HLD	52	0	3	96
TAP	52	144	1
TAP	52	144	3
TAP	52	192	0
TAP	52	216	7
TAP	52	240	0
TAP	52	264	7
TAP	52	288	0
HLD	53	0	3	96
HLD	53	0	5	96
TAP	53	144	3
TAP	53	144	5
TAP	53	192	7
TAP	53	216	0
TAP	53	240	7
TAP	53	264	0
TAP	53	288	7
HLD	54	0	2	96
HLD	54	0	4	96
TAP	54	144	2
TAP	54	144	4
TAP	54	192	0
TAP	54	216	7
TAP	54	240	0
TAP	54	264	7
TAP	54	288	0
HLD	55	0	0	96
HLD	55	0	5	96
TAP	55	144	0
TAP	55	144	5
TAP	55	192	4
TAP	55	216	3
TAP	55	240	4
TAP	55	264	3
TAP	55	288	4
HLD	56	0	2	96
HLD	56	0	7	96
TAP	56	144	2
TAP	56	144	7
TAP	56	192	3
TAP	56	216	4
TAP	56	240	3
TAP	56	264	4
TAP	56	288	3
HLD	57	0	0	96
HLD	57	0	6	96
TAP	57	144	0
TAP	57	144	6
TAP	57	192	4
TAP	57	216	3
TAP	57	240	4
TAP	57	264	3
TAP	57	288	4
HLD	58	0	1	96
HLD	58	0	7	96
TAP	58	144	1
TAP	58	144	7
XTP	58	192	2
XTP	58	224	3
XTP	58	256	1
XTP	58	288	5
XTP	58	320	4
XTP	58	352	6
STR	59	0	0
SCR	59	0	0	96	864	6
STR	61	0	2
SCR	61	0	2	96	864	0
STR	63	0	4
SCR	63	0	4	96	864	2
STR	65	0	6
SCR	65	0	6	96	864	4
TAP	67	0	0
TAP	67	96	0
TAP	67	192	0
TAP	67	288	0
TAP	67	320	7
TAP	67	352	0
TAP	68	0	7
TAP	68	96	7
TAP	68	192	7
TAP	68	288	7
TAP	68	320	3
TAP	68	352	7
TAP	69	0	3
TAP	69	96	3
TAP	69	192	3
TAP	69	288	3
TAP	69	320	4
TAP	69	352	3
TAP	70	0	5
TAP	70	32	4
TAP	70	64	5
TAP	70	96	2
TAP	70	128	3
TAP	70	160	2
TAP	70	192	5
TAP	70	224	4
TAP	70	256	6
TAP	70	288	2
TAP	70	320	3
TAP	70	352	1
TAP	71	0	7
TAP	71	96	7
TAP	71	192	7
TAP	71	288	7
TAP	71	320	0
TAP	71	352	7
TAP	72	0	0
TAP	72	96	0
TAP	72	192	0
TAP	72	288	0
TAP	72	320	4
TAP	72	352	0
TAP	73	0	4
TAP	73	96	4
TAP	73	192	4
TAP	73	288	4
TAP	73	320	3
TAP	73	352	4
TAP	74	0	3
TAP	74	96	3
TAP	74	192	3
TAP	74	288	3
TAP	74	320	4
TAP	74	352	3
TAP	75	0	5
TAP	75	48	5
TAP	75	96	1
TAP	75	144	1
TAP	75	192	6
TAP	75	240	6
STR	75	288	3
SCL	75	288	3	96	288	4
BRK	77	0	0
BRK	78	288	2
BRK	78	288	5
STR	79	0	0
SI_	79	0	0	96	48	4
STR	79	96	6
SI_	79	96	6	96	48	2
TAP	79	192	1
TAP	79	240	1
TAP	79	288	0
TAP	79	288	3
TAP	80	0	1
STR	80	48	1
SCR	80	48	1	96	96	5
TAP	80	144	6
TAP	80	192	6
TAP	80	288	3
BRK	80	288	7
STR	81	0	6
SI_	81	0	6	96	48	2
STR	81	96	0
SI_	81	96	0	96	48	4
TAP	81	192	7
TAP	81	240	7
TAP	81	288	0
TAP	81	336	0
STR	82	0	4
SCR	82	0	4	96	48	7
STR	82	96	0
SCR	82	96	0	96	48	3
TAP	82	192	4
BRK	82	288	2
BRK	82	288	6
HLD	83	0	7	384
TAP	83	96	5
TAP	83	144	5
TAP	83	192	4
TAP	83	240	3
TAP	83	288	2
TAP	83	336	1
HLD	84	0	1	72
HLD	84	72	2	72
TAP	84	144	3
TAP	84	192	3
TAP	84	288	2
TAP	84	288	4
TAP	85	0	1
TAP	85	0	5
TAP	85	72	2
TAP	85	96	3
TAP	85	144	1
TAP	85	192	2
TAP	85	192	6
TAP	85	264	5
TAP	85	288	4
TAP	85	336	6
XTP	86	0	0
XTP	86	0	7
XTP	86	48	0
XTP	86	48	7
XTP	86	96	1
XTP	86	96	6
XTP	86	144	2
XTP	86	144	5
XTP	86	192	3
XTP	86	192	4
BRK	86	288	2
BRK	86	288	5
STR	87	0	7
SI_	87	0	7	96	48	3
STR	87	96	1
SI_	87	96	1	96	48	5
TAP	87	192	6
TAP	87	240	6
TAP	87	288	4
TAP	87	288	7
TAP	88	0	6
STR	88	48	6
SCL	88	48	6	96	96	2
TAP	88	144	1
TAP	88	192	1
BRK	88	288	0
TAP	88	288	4
STR	89	0	1
SI_	89	0	1	96	48	5
STR	89	96	7
SI_	89	96	7	96	48	3
TAP	89	192	0
TAP	89	240	0
TAP	89	288	7
TAP	89	336	7
STR	90	0	3
SCL	90	0	3	96	48	0
STR	90	96	7
SCL	90	96	7	96	48	4
TAP	90	192	3
BRK	90	288	1
BRK	90	288	5
HLD	91	0	0	384
TAP	91	96	2
TAP	91	144	2
TAP	91	192	3
TAP	91	240	4
TAP	91	288	5
TAP	91	336	6
TAP	92	0	7
TAP	92	96	5
TAP	92	96	6
TAP	92	192	3
TAP	92	192	4
STR	92	288	1
SI_	92	288	1	96	48	6
STR	92	288	2
SI_	92	288	2	96	48	5
TAP	93	144	2
TAP	93	144	4
TAP	93	192	0
TAP	93	240	7
STR	93	288	5
SI_	93	288	5	96	48	2
STR	93	288	6
SI_	93	288	6	96	48	1
TAP	94	144	3
TAP	94	144	5
TAP	94	192	7
TAP	94	240	0
STR	94	288	1
SI_	94	288	1	96	48	6
STR	94	288	2
SI_	94	288	2	96	48	5
TAP	95	144	2
TAP	95	144	4
TAP	95	192	0
TAP	95	240	7
STR	95	288	5
SI_	95	288	5	96	48	2
STR	95	288	6
SI_	95	288	6	96	48	1
TAP	96	144	1
TAP	96	144	6
XTP	96	192	0
XTP	96	192	7
XTP	96	224	0
XTP	96	224	7
XTP	96	256	0
XTP	96	256	7
XTP	96	288	0
XTP	96	288	7
TAP	97	0	1
TAP	97	48	1
TAP	97	48	3
TAP	97	96	5
TAP	97	144	3
TAP	97	144	5
TAP	97	192	2
TAP	97	216	3
TAP	97	240	2
TAP	97	288	1
TAP	97	336	0
TAP	97	336	7
TAP	98	0	6
TAP	98	48	4
TAP	98	48	6
TAP	98	96	2
TAP	98	144	2
TAP	98	144	4
TAP	98	192	5
TAP	98	216	4
TAP	98	240	5
TAP	98	288	6
TAP	98	336	0
TAP	98	336	7
TAP	99	0	3
TAP	99	24	4
TAP	99	48	3
TAP	99	72	4
TAP	99	96	3
TAP	99	120	4
TAP	99	144	3
TAP	99	168	4
TAP	99	192	3
TAP	99	216	2
TAP	99	240	1
TAP	99	264	0
TAP	99	288	7
TAP	99	312	6
TAP	99	336	5
TAP	99	360	4
XST	100	0	3
SCL	100	0	3	96	96	0
XST	100	192	4
SCR	100	192	4	96	96	7
TTP	101	0	0	C	1	M1
TTP	106	0	0	E	0	M1
TTP	107	0	0	C	0	M1
TTP	108	0	4	E	0	M1

T_REC_TAP	411
T_REC_BRK	23
T_REC_XTP	25
T_REC_HLD	58
T_REC_XHO	0
T_REC_STR	38
T_REC_BST	0
T_REC_XST	2
T_REC_TTP	12
T_REC_THO	0
T_REC_SLD	40
T_REC_ALL	609
T_NUM_TAP	488
T_NUM_BRK	23
T_NUM_HLD	58
T_NUM_SLD	40
T_NUM_ALL	609
T_JUDGE_TAP	511
T_JUDGE_HLD	258
T_JUDGE_SLD	40
T_JUDGE_ALL	809
TTM_EACHPAIRS	86
TTM_SCR_TAP	244000
TTM_SCR_BRK	59800
TTM_SCR_HLD	58000
TTM_SCR_SLD	60000
TTM_SCR_ALL	421800
TTM_SCR_S	406950
TTM_SCR_SS	419500
TTM_RAT_ACV	10054

