VERSION	0.00.00	1.03.00
FES_MODE	0
BPM_DEF	200.000	200.000	200.000	160.000
MET_DEF	4	4
RESOLUTION	384
CLK_DEF	384
COMPATIBLE_CODE	MA2

BPM	0	0	200.000
BPM	105	0	160.000
MET	0	0	4	4

HLD	1	0	5	384
TAP	2	0	4
HLD	3	0	2	384
TAP	4	0	3
TAP	4	192	3
TAP	4	192	4
HLD	5	0	5	384
HLD	6	0	4	384
HLD	7	0	3	384
TAP	8	0	2
TAP	8	192	2
XST	9	0	1
SI_	9	0	1	96	288	4
STR	11	0	6
SI_	11	0	6	96	288	3
STR	13	0	1
SI_	13	0	1	96	288	5
STR	15	0	6
SCL	15	0	6	96	480	1
HLD	17	0	0	576
HLD	18	0	7	192
BRK	19	0	1
BRK	19	0	6
TAP	19	96	1
TAP	19	96	6
TAP	19	192	2
TAP	19	288	2
TAP	19	288	3
TAP	20	0	5
TAP	20	96	4
TAP	20	96	5
TAP	20	192	6
TAP	20	192	7
TAP	20	288	0
TAP	20	288	5
XTP	21	0	1
XTP	21	0	4
TAP	21	96	1
TAP	21	96	4
TAP	21	192	2
TAP	21	240	2
TAP	21	288	3
TAP	22	0	5
TAP	22	48	5
TAP	22	96	4
TAP	22	192	6
TAP	22	240	6
TAP	22	288	7
XTP	23	0	0
XTP	23	0	5
TAP	23	192	4
TAP	23	192	6
TAP	23	288	5
TAP	24	0	3
TAP	24	0	4
TAP	24	96	2
TAP	24	192	1
TAP	24	192	3
TAP	24	288	0
STR	25	0	7
SI_	25	0	7	96	192	3
STR	26	0	2
SI_	26	0	2	96	192	7
BRK	27	0	0
BRK	27	0	6
TAP	27	96	6
TAP	27	192	4
TAP	27	192	5
TAP	27	288	3
TAP	27	288	6
TAP	28	0	2
TAP	28	0	3
TAP	28	96	1
TAP	28	96	4
TAP	28	192	0
TAP	28	192	7
TAP	28	288	1
TAP	28	288	6
XTP	29	0	2
XTP	29	0	5
TAP	29	96	2
TAP	29	96	5
TAP	29	192	1
TAP	29	240	1
TAP	29	288	0
TAP	30	0	6
TAP	30	48	6
TAP	30	96	7
TAP	30	192	5
TAP	30	240	5
TAP	30	288	4
XTP	31	0	3
XTP	31	0	6
TAP	31	192	2
TAP	31	192	4
TAP	31	288	1
TAP	32	0	3
TAP	32	0	5
TAP	32	96	6
TAP	32	192	3
TAP	32	192	4
TAP	32	288	2
TAP	32	288	5
STR	33	0	1
SLR	33	0	1	96	288	7
STR	33	0	6
SLL	33	0	6	96	288	0
BRK	34	192	1
BRK	34	192	6
HLD	35	0	2	96
TAP	35	96	3
TAP	35	192	1
TAP	35	192	4
TAP	35	288	2
TAP	35	288	3
HLD	36	0	5	96
TAP	36	96	4
TAP	36	192	3
TAP	36	192	6
HLD	37	0	6	96
TAP	37	96	7
TAP	37	192	0
TAP	37	192	5
TAP	37	288	6
TAP	37	288	7
HLD	38	0	1	96
TAP	38	96	0
XTP	38	192	2
XTP	38	192	7
TAP	39	0	2
TAP	39	48	2
TAP	39	96	3
TAP	39	144	3
TAP	39	192	2
TAP	39	288	1
TAP	39	288	4
TAP	40	0	5
TAP	40	48	5
TAP	40	96	4
TAP	40	144	4
TAP	40	192	5
TAP	40	288	3
TAP	40	288	6
TAP	41	0	6
TAP	41	48	6
TAP	41	96	6
TAP	41	96	7
TAP	41	192	1
TAP	41	240	1
TAP	41	288	0
TAP	41	288	1
TAP	42	0	6
TAP	42	0	7
TAP	42	96	0
TAP	42	96	5
XTP	42	192	1
XTP	42	192	4
HLD	43	0	5	96
TAP	43	96	4
TAP	43	192	3
TAP	43	192	6
TAP	43	288	4
TAP	43	288	5
HLD	44	0	6	96
TAP	44	96	7
TAP	44	192	0
TAP	44	192	5
TAP	44	288	0
TAP	44	288	5
HLD	45	0	1	96
TAP	45	96	0
TAP	45	192	2
TAP	45	192	7
TAP	45	288	0
TAP	45	288	1
HLD	46	0	2	96
TAP	46	96	3
XTP	46	192	1
XTP	46	192	4
TAP	47	0	1
TAP	47	48	1
TAP	47	96	0
TAP	47	144	0
TAP	47	192	1
TAP	47	288	2
TAP	47	288	7
TAP	48	0	6
TAP	48	48	6
TAP	48	96	7
TAP	48	144	7
TAP	48	192	6
TAP	48	288	0
TAP	48	288	5
TAP	49	0	6
TAP	49	48	6
TAP	49	96	0
TAP	49	144	0
TAP	49	192	7
TAP	49	240	7
TAP	49	288	1
HLD	50	0	0	96
HLD	50	0	7	96
BRK	50	192	1
BRK	50	192	6
STR	51	0	2
SI_	51	0	2	96	192	7
STR	52	0	6
SI_	52	0	6	96	192	2
STR	53	0	1
SI_	53	0	1	96	192	5
STR	54	0	6
SI_	54	0	6	96	192	3
STR	55	0	2
SCL	55	0	2	96	192	7
STR	56	0	6
SCL	56	0	6	96	192	3
STR	57	0	0
SI_	57	0	0	96	192	5
STR	57	0	1
SI_	57	0	1	96	192	4
XTP	58	0	3
XTP	58	0	6
XTP	58	96	3
XTP	58	96	6
XTP	58	192	3
XTP	58	192	6
TTP	59	0	0	C	1	L1
TTP	59	0	1	B	0	L1
TTP	59	0	6	B	0	L1
TTP	63	0	5	B	0	L1
TTP	63	192	4	B	0	L1
TTP	64	0	3	B	0	L1
TTP	64	192	2	B	0	L1
THO	65	0	0	384	C	0	L1
TTP	67	0	3	B	0	L1
TTP	67	0	4	B	0	L1
TTP	67	192	2	B	0	L1
TTP	67	192	5	B	0	L1
TTP	68	0	1	B	0	L1
TTP	68	0	6	B	0	L1
TTP	69	0	2	B	0	L1
TTP	69	0	5	B	0	L1
TTP	69	192	1	B	0	L1
TTP	69	192	6	B	0	L1
TTP	70	0	0	B	0	L1
TTP	70	0	7	B	0	L1
TTP	71	0	5	B	0	L1
TTP	71	0	6	B	0	L1
TTP	71	0	7	E	0	L1
TTP	72	0	1	B	0	L1
TTP	72	0	1	E	0	L1
TTP	72	0	2	B	0	L1
TTP	73	0	4	B	0	L1
TTP	73	0	5	B	0	L1
TTP	73	0	6	E	0	L1
TTP	74	0	2	B	0	L1
TTP	74	0	2	E	0	L1
TTP	74	0	3	B	0	L1
HLD	75	0	4	768
THO	76	0	0	384	C	1	L1
XTP	78	240	0
XTP	78	288	0
TAP	79	0	1
TAP	79	0	7
TAP	79	96	2
TAP	79	96	6
TAP	79	192	5
TAP	79	240	5
TAP	79	288	3
TAP	79	288	5
TAP	80	0	2
TAP	80	0	4
TAP	80	96	1
TAP	80	96	5
TAP	80	192	6
TAP	80	240	6
TAP	80	288	0
TAP	80	288	6
TAP	81	0	4
TAP	81	0	5
TAP	81	96	1
TAP	81	96	6
TAP	81	192	2
TAP	81	192	3
TAP	81	288	1
TAP	81	288	6
BRK	82	0	4
BRK	82	0	5
BRK	82	96	0
BRK	82	96	7
BRK	82	192	1
BRK	82	192	6
STR	83	0	4
SI_	83	0	4	96	96	7
TAP	83	192	0
TAP	83	288	0
STR	84	0	0
SI_	84	0	0	96	96	4
TAP	84	192	5
TAP	84	288	5
STR	85	0	5
SI_	85	0	5	96	96	2
STR	85	192	1
SI_	85	192	1	96	96	5
TAP	86	0	6
TAP	86	96	6
BRK	86	192	0
BRK	86	192	5
TAP	87	0	4
TAP	87	0	5
TAP	87	96	3
TAP	87	96	6
TAP	87	192	0
TAP	87	192	1
TAP	87	240	0
TAP	87	240	1
TAP	87	288	0
TAP	87	288	1
TAP	88	0	6
TAP	88	0	7
TAP	88	96	0
TAP	88	96	5
TAP	88	192	2
TAP	88	192	3
TAP	88	240	2
TAP	88	240	3
TAP	88	288	2
TAP	88	288	3
TAP	89	0	2
TAP	89	0	5
TAP	89	96	6
TAP	89	96	7
TAP	89	192	2
TAP	89	192	5
TAP	89	288	0
TAP	89	288	1
BRK	90	0	2
BRK	90	0	3
BRK	90	96	4
BRK	90	96	5
BRK	90	192	6
BRK	90	192	7
BRK	90	288	0
BRK	90	288	5
TAP	91	0	6
TAP	91	48	6
TAP	91	96	0
TAP	91	144	0
TAP	91	192	7
TAP	91	240	7
TAP	91	288	1
TAP	91	336	1
BRK	92	0	0
BRK	92	0	1
BRK	92	96	2
BRK	92	96	3
BRK	92	192	4
BRK	92	192	5
BRK	92	288	6
BRK	92	288	7
STR	93	0	0
SI_	93	0	0	96	96	4
TAP	93	192	5
TAP	93	240	5
TAP	93	288	5
STR	94	0	6
SI_	94	0	6	96	96	3
TAP	94	192	2
TAP	94	240	2
TAP	94	288	2
STR	95	0	1
SI_	95	0	1	96	96	5
TAP	95	192	6
TAP	95	240	6
TAP	95	288	6
STR	96	0	7
SI_	96	0	7	96	96	3
TAP	96	192	2
TAP	96	240	2
XTP	96	288	2
TAP	97	0	4
TAP	97	48	4
TAP	97	96	2
TAP	97	144	2
TAP	97	192	7
TAP	97	240	7
TAP	97	288	0
TAP	97	336	0
TAP	98	0	6
TAP	98	48	6
TAP	98	96	3
TAP	98	144	3
TAP	98	192	4
TAP	98	240	4
TAP	98	288	2
TAP	98	336	2
TAP	99	0	3
TAP	99	0	4
TAP	99	48	3
TAP	99	48	4
TAP	99	96	2
TAP	99	96	5
TAP	99	144	2
TAP	99	144	5
TAP	99	192	1
TAP	99	192	6
TAP	99	240	1
TAP	99	240	6
TAP	99	288	0
TAP	99	288	7
TAP	99	336	0
TAP	99	336	7
BRK	100	0	0
BRK	100	0	7
BRK	100	192	2
BRK	100	192	5
THO	101	0	0	768	C	0	L1
TTP	101	0	1	B	0	L1
TTP	101	0	2	B	0	L1
TTP	101	0	5	B	0	L1
TTP	101	0	6	B	0	L1
TTP	106	0	3	E	0	L1
TTP	106	192	3	B	0	L1
TTP	107	0	4	B	0	L1
TTP	107	192	5	E	0	L1
STR	108	0	5
SI_	108	0	5	96	1344	2

T_REC_TAP	258
T_REC_BRK	36
T_REC_XTP	23
T_REC_HLD	18
T_REC_XHO	0
T_REC_STR	24
T_REC_BST	0
T_REC_XST	1
T_REC_TTP	39
T_REC_THO	3
T_REC_SLD	25
T_REC_ALL	427
T_NUM_TAP	345
T_NUM_BRK	36
T_NUM_HLD	21
T_NUM_SLD	25
T_NUM_ALL	427
T_JUDGE_TAP	381
T_JUDGE_HLD	124
T_JUDGE_SLD	25
T_JUDGE_ALL	530
TTM_EACHPAIRS	103
TTM_SCR_TAP	172500
TTM_SCR_BRK	93600
TTM_SCR_HLD	21000
TTM_SCR_SLD	37500
TTM_SCR_ALL	324600
TTM_SCR_S	311400
TTM_SCR_SS	321000
TTM_RAT_ACV	10112

