VERSION	0.00.00	1.03.00
FES_MODE	0
BPM_DEF	200.000	200.000	200.000	160.000
MET_DEF	4	4
RESOLUTION	384
CLK_DEF	384
COMPATIBLE_CODE	MA2

BPM	0	0	200.000
BPM	105	0	160.000
MET	0	0	4	4

TAP	9	0	0
TAP	11	0	0
TAP	13	0	7
HLD	15	0	7	576
HLD	17	0	0	576
HLD	17	0	7	576
TAP	19	0	0
TAP	19	192	0
TAP	20	0	0
TAP	21	0	1
TAP	21	192	1
TAP	22	0	1
TAP	23	0	2
TAP	23	192	2
TAP	24	0	2
TAP	25	0	3
TAP	25	192	3
TAP	26	0	3
TAP	26	0	4
TAP	27	0	4
TAP	27	192	4
TAP	28	0	4
TAP	29	0	5
TAP	29	192	5
TAP	30	0	5
TAP	31	0	6
TAP	31	192	6
TAP	32	0	7
TAP	32	192	7
TAP	33	0	0
TAP	33	192	0
TAP	34	0	0
TAP	34	0	7
TAP	35	0	6
TAP	35	96	6
TAP	35	192	6
TAP	36	0	5
TAP	36	96	5
TAP	36	192	5
TAP	37	0	4
TAP	37	96	4
TAP	37	192	4
TAP	38	0	3
TAP	38	0	4
TAP	38	192	3
TAP	38	192	4
TAP	39	0	2
TAP	39	96	2
TAP	39	192	2
TAP	40	0	1
TAP	40	96	1
TAP	40	192	1
TAP	41	0	0
TAP	41	96	0
TAP	41	192	0
TAP	42	0	0
TAP	42	0	7
TAP	43	0	1
TAP	43	96	1
TAP	43	192	1
TAP	44	0	2
TAP	44	96	2
TAP	44	192	2
TAP	45	0	3
TAP	45	96	3
TAP	45	192	3
TAP	46	0	3
TAP	46	0	4
TAP	46	192	3
TAP	46	192	4
TAP	47	0	5
TAP	47	96	5
TAP	47	192	5
TAP	48	0	6
TAP	48	96	6
TAP	48	192	6
TAP	49	0	7
TAP	49	96	7
TAP	49	192	7
BRK	50	0	0
BRK	50	0	7
XTP	51	0	0
XTP	51	0	1
XTP	52	0	0
XTP	52	0	1
XTP	53	0	6
XTP	53	0	7
XTP	54	0	6
XTP	54	0	7
XTP	55	0	4
XTP	55	0	5
XTP	56	0	4
XTP	56	0	5
XTP	57	0	2
XTP	57	0	3
XTP	58	0	2
XTP	58	0	3
STR	59	0	1
SI_	59	0	1	96	672	5
STR	63	0	6
SI_	63	0	6	96	672	2
TTP	67	0	1	B	0	L1
TTP	68	0	2	B	0	L1
TTP	69	0	3	B	0	L1
TTP	70	0	4	B	0	L1
TTP	71	0	5	B	0	L1
TTP	72	0	6	B	0	L1
TTP	73	0	0	B	0	L1
TTP	73	0	7	B	0	L1
TTP	74	0	1	B	0	L1
TTP	74	0	6	B	0	L1
THO	75	0	0	768	C	1	L1
TAP	79	0	1
TAP	79	96	1
TAP	79	192	1
TAP	80	0	2
TAP	80	96	2
TAP	80	192	2
TAP	81	0	3
TAP	81	96	3
TAP	81	192	3
TAP	82	0	4
TAP	82	96	4
TAP	82	192	3
TAP	82	192	4
TAP	83	0	5
TAP	83	96	5
TAP	83	192	4
TAP	83	288	4
TAP	84	0	3
TAP	84	96	3
TAP	84	192	2
TAP	84	192	4
TAP	85	0	2
TAP	85	96	2
TAP	85	192	3
TAP	85	288	3
TAP	86	0	4
TAP	86	96	4
TAP	86	192	3
TAP	86	192	5
TAP	87	0	6
TAP	87	96	6
TAP	87	192	6
TAP	88	0	5
TAP	88	96	5
TAP	88	192	5
TAP	89	0	4
TAP	89	96	4
TAP	89	192	4
TAP	90	0	3
TAP	90	96	3
TAP	90	192	3
TAP	90	192	4
TAP	91	0	2
TAP	91	96	2
TAP	91	192	1
TAP	91	288	1
TAP	92	0	0
TAP	92	96	0
TAP	92	192	0
TAP	92	192	7
XHO	93	0	6	144
XHO	93	0	7	144
XHO	94	0	4	144
XHO	94	0	5	144
XHO	95	0	2	144
XHO	95	0	3	144
XHO	96	0	0	144
XHO	96	0	1	144
TAP	97	0	7
TAP	97	96	7
TAP	97	192	0
TAP	97	288	0
TAP	98	0	7
TAP	98	96	7
XTP	98	192	0
XTP	98	192	7
TAP	99	0	0
TAP	99	96	7
TAP	99	192	0
TAP	99	288	7
TAP	100	0	0
TAP	100	0	7
TAP	100	192	0
TAP	100	192	7
BRK	101	0	1
BRK	101	0	6
TAP	102	0	1
TAP	103	0	0
HLD	104	0	7	384
TTP	106	0	0	B	0	L1
TTP	106	0	7	B	0	L1
TTP	107	0	1	B	0	L1
TTP	107	0	6	B	0	L1
THO	108	0	0	1536	C	0	L1

T_REC_TAP	142
T_REC_BRK	4
T_REC_XTP	18
T_REC_HLD	4
T_REC_XHO	8
T_REC_STR	2
T_REC_BST	0
T_REC_XST	0
T_REC_TTP	14
T_REC_THO	2
T_REC_SLD	2
T_REC_ALL	196
T_NUM_TAP	176
T_NUM_BRK	4
T_NUM_HLD	14
T_NUM_SLD	2
T_NUM_ALL	196
T_JUDGE_TAP	180
T_JUDGE_HLD	116
T_JUDGE_SLD	2
T_JUDGE_ALL	298
TTM_EACHPAIRS	30
TTM_SCR_TAP	88000
TTM_SCR_BRK	10400
TTM_SCR_HLD	14000
TTM_SCR_SLD	3000
TTM_SCR_ALL	115400
TTM_SCR_S	111550
TTM_SCR_SS	115000
TTM_RAT_ACV	10034

