VERSION	0.00.00	1.03.00
FES_MODE	0
BPM_DEF	170.000	170.000	170.000	 96.000
MET_DEF	4	4
RESOLUTION	384
CLK_DEF	384
COMPATIBLE_CODE	MA2

BPM	0	0	170.000
BPM	95	0	168.000
BPM	96	0	158.000
BPM	97	0	146.000
BPM	98	0	134.000
BPM	98	192	122.000
BPM	99	0	112.000
BPM	102	0	 96.000
MET	0	0	4	4

TTP	2	0	5	E	0	M1
TTP	2	96	4	B	0	M1
TTP	2	96	5	B	0	M1
TTP	2	192	3	E	0	M1
TTP	2	288	2	B	0	M1
TTP	2	288	3	B	0	M1
TTP	3	0	4	E	0	M1
TTP	3	96	0	C	0	M1
TTP	3	192	1	B	0	M1
TTP	3	192	2	E	0	M1
TTP	3	192	6	B	0	M1
TTP	3	192	6	E	0	M1
TTP	4	0	4	B	0	M1
TTP	4	96	0	C	0	M1
TTP	4	192	6	B	0	M1
TTP	4	288	6	E	0	M1
TTP	4	288	7	E	0	M1
TTP	5	0	1	B	0	M1
TTP	5	96	0	C	0	M1
TTP	5	192	3	B	0	M1
TTP	5	288	2	E	0	M1
TTP	5	288	3	E	0	M1
TTP	6	0	6	B	0	M1
TTP	6	96	4	B	0	M1
TTP	6	192	2	B	0	M1
TTP	6	288	1	B	0	M1
TTP	6	288	2	E	0	M1
TTP	7	0	6	B	0	M1
TTP	7	0	6	E	0	M1
TTP	7	96	3	B	0	M1
TTP	7	96	4	B	0	M1
TTP	7	96	4	E	0	M1
TTP	7	192	0	C	0	M1
TTP	8	0	5	B	0	M1
TTP	8	96	4	B	0	M1
TTP	8	96	6	E	0	M1
TTP	8	192	1	B	0	M1
TTP	8	288	1	E	0	M1
TTP	8	288	2	B	0	M1
TTP	9	0	6	B	0	M1
TTP	9	96	5	B	0	M1
TTP	9	96	7	E	0	M1
TTP	9	192	2	B	0	M1
TTP	9	288	2	E	0	M1
TTP	9	288	3	B	0	M1
TTP	10	0	5	B	0	M1
TTP	10	0	6	B	0	M1
TTP	10	96	1	B	0	M1
TTP	10	96	2	B	0	M1
TTP	10	192	3	B	0	M1
TTP	10	192	4	B	0	M1
TTP	10	288	0	C	0	M1
HLD	11	0	0	96
HLD	11	0	7	96
TAP	11	192	1
TAP	11	192	6
TAP	11	288	3
STR	11	288	4
SI_	11	288	4	96	48	7
BRK	12	0	0
TAP	12	96	1
STR	12	96	6
SI_	12	96	6	96	48	1
TAP	12	160	2
TAP	12	192	2
STR	12	288	3
SI_	12	288	3	96	48	0
TAP	12	288	4
TAP	12	352	5
TAP	13	0	5
STR	13	96	2
SI_	13	96	2	96	48	5
TAP	13	96	6
TAP	13	160	7
TAP	13	192	7
TAP	13	288	0
STR	13	288	6
SI_	13	288	6	96	48	3
TAP	13	352	2
TAP	14	0	2
TAP	14	96	1
STR	14	96	4
SI_	14	96	4	96	48	1
TAP	14	160	0
TAP	14	192	0
STR	14	288	2
SI_	14	288	2	96	48	7
TAP	14	288	7
TAP	14	352	5
TAP	15	0	5
XTP	15	96	0
XTP	15	96	6
XTP	15	192	1
XTP	15	192	7
STR	15	288	3
SI_	15	288	3	96	48	0
TAP	15	288	4
BRK	16	0	7
TAP	16	96	1
STR	16	96	6
SI_	16	96	6	96	48	1
TAP	16	160	2
TAP	16	192	2
STR	16	288	0
SI_	16	288	0	96	48	3
TAP	16	288	4
TAP	16	352	5
TAP	17	0	5
TAP	17	96	7
TAP	17	160	6
TAP	17	192	0
TAP	17	192	6
XTP	17	256	1
XTP	17	256	3
XTP	17	320	4
XTP	17	320	5
TAP	18	0	3
STR	18	0	6
SI_	18	0	6	96	48	4
STR	18	96	6
SI_	18	96	6	96	48	2
STR	18	96	7
SI_	18	96	7	96	48	1
TAP	18	192	6
STR	18	192	7
SI_	18	192	7	96	48	3
BRK	18	288	4
BRK	18	288	7
STR	19	0	1
SI_	19	0	1	96	48	3
TAP	19	0	5
STR	19	96	0
SI_	19	96	0	96	48	6
STR	19	96	1
SI_	19	96	1	96	48	5
STR	19	192	0
SI_	19	192	0	96	48	4
TAP	19	192	1
BRK	19	288	0
BRK	19	288	3
BST	20	0	1
SCR	20	0	1	96	480	7
BST	20	0	6
SCL	20	0	6	96	480	0
HLD	22	0	3	1344
TAP	22	0	4
TTP	23	0	5	E	0	M1
TTP	23	16	4	B	0	M1
TTP	23	192	2	E	0	M1
TTP	23	208	2	B	0	M1
TTP	24	0	6	E	0	M1
TTP	24	16	5	B	0	M1
TTP	24	192	1	E	0	M1
TTP	24	208	1	B	0	M1
TTP	25	0	7	E	0	M1
TTP	25	16	6	B	0	M1
TTP	25	192	0	C	0	M1
TAP	26	0	2
TAP	26	0	5
TTP	26	96	2	B	0	M1
TTP	26	128	3	B	0	M1
TTP	26	160	4	E	0	M1
TTP	26	192	6	B	0	M1
TTP	26	192	7	E	0	M1
TTP	26	288	6	E	0	M1
TTP	26	320	5	B	0	M1
TTP	26	352	4	B	0	M1
TTP	27	0	1	B	0	M1
TTP	27	0	1	E	0	M1
TTP	27	96	2	E	0	M1
TTP	27	128	2	B	0	M1
TTP	27	160	3	B	0	M1
TTP	27	192	7	B	0	M1
TTP	27	192	7	E	0	M1
TTP	27	288	5	B	0	M1
TTP	27	320	4	B	0	M1
TTP	27	352	4	E	0	M1
TTP	28	0	0	B	0	M1
TTP	28	0	1	E	0	M1
TTP	28	96	2	E	0	M1
TTP	28	128	7	E	0	M1
TTP	28	160	3	E	0	M1
TTP	28	192	6	E	0	M1
TTP	28	224	1	E	0	M1
TTP	28	256	5	E	0	M1
TTP	28	288	2	E	0	M1
TTP	28	320	0	E	0	M1
TTP	28	352	4	E	0	M1
THO	29	0	0	192	C	1	M1
BRK	29	192	0
STR	30	0	1
SI_	30	0	1	96	48	5
STR	30	96	5
SI_	30	96	5	96	48	3
TAP	30	160	7
TAP	30	192	7
TAP	30	288	2
TAP	30	288	6
STR	31	0	5
SI_	31	0	5	96	48	1
STR	31	96	1
SI_	31	96	1	96	48	7
TAP	31	160	3
TAP	31	192	3
TAP	31	288	2
TAP	31	288	6
STR	32	0	3
SI_	32	0	3	96	48	5
STR	32	96	5
SI_	32	96	5	96	48	1
TAP	32	160	7
STR	32	192	7
SI_	32	192	7	96	48	3
TAP	32	288	2
STR	33	0	0
SI_	33	0	0	96	32	2
STR	33	96	0
SI_	33	96	0	96	32	4
STR	33	96	3
SI_	33	96	3	96	32	6
TAP	33	192	0
TAP	33	192	3
BRK	33	288	7
STR	34	0	3
SI_	34	0	3	96	48	7
TAP	34	0	4
STR	34	96	7
SI_	34	96	7	96	32	1
TAP	34	160	4
STR	34	192	5
SI_	34	192	5	96	48	1
XTP	34	288	3
STR	35	0	7
SI_	35	0	7	96	48	3
STR	35	96	3
SI_	35	96	3	96	48	5
TAP	35	160	0
STR	35	192	1
SI_	35	192	1	96	48	5
STR	35	288	7
SI_	35	288	7	96	48	3
TAP	36	0	3
XST	36	0	7
SXL	36	0	7	96	96	2
TAP	36	96	4
TAP	36	128	5
TAP	36	160	6
XST	36	192	7
SXR	36	192	7	96	96	4
TAP	36	288	3
TAP	36	320	2
TAP	36	352	1
XST	37	0	0
SF_	37	0	0	96	48	4
TAP	37	96	0
BRK	37	192	2
BRK	37	192	6
STR	38	0	3
SCL	38	0	3	96	576	5
HLD	38	0	5	192
HLD	39	0	3	192
THO	40	0	0	192	C	0	M1
XST	40	0	7
SCL	40	0	7	96	576	1
HLD	41	0	0	192
TAP	42	0	1
HLD	42	0	7	672
TTP	42	192	6	B	0	M1
TTP	42	192	7	E	0	M1
TTP	42	288	0	B	0	M1
TTP	42	288	0	E	0	M1
TTP	43	0	5	B	0	M1
TTP	43	0	5	E	0	M1
TTP	43	96	1	B	0	M1
TTP	43	96	2	E	0	M1
TTP	43	192	4	B	0	M1
TTP	43	192	4	E	0	M1
TTP	43	288	2	B	0	M1
TTP	43	288	3	E	0	M1
HLD	44	0	4	96
HLD	44	0	5	96
TAP	44	192	4
TAP	44	192	5
TAP	44	288	3
TAP	44	320	3
TAP	44	352	4
HLD	45	0	2	96
TAP	45	96	3
TAP	45	192	1
TAP	45	192	4
TAP	45	288	7
TAP	45	320	7
TAP	45	352	0
XTP	46	0	1
XTP	46	0	6
XTP	46	96	3
XTP	46	96	4
TAP	46	192	6
TAP	46	224	4
TAP	46	256	5
TAP	46	288	1
TAP	46	320	3
TAP	46	352	2
XTP	47	0	3
XTP	47	0	4
TAP	47	64	6
STR	47	96	0
SI_	47	96	0	96	32	4
TAP	47	128	7
TAP	47	160	1
XTP	47	192	0
TAP	47	256	1
STR	47	288	7
SI_	47	288	7	96	32	3
TAP	47	320	0
TAP	47	352	6
XTP	48	0	7
TAP	48	64	6
STR	48	96	0
SI_	48	96	0	96	32	5
TAP	48	128	7
TAP	48	160	2
XTP	48	192	0
XTP	48	256	3
XTP	48	256	4
XTP	48	320	1
XTP	48	320	3
XTP	49	0	0
XTP	49	0	7
TAP	49	64	1
STR	49	96	7
SI_	49	96	7	96	32	3
TAP	49	128	0
TAP	49	160	6
XTP	49	192	7
TAP	49	256	6
STR	49	288	0
SI_	49	288	0	96	32	4
TAP	49	320	7
TAP	49	352	1
STR	50	0	0
SI_	50	0	0	96	32	6
STR	50	96	0
SI_	50	96	0	96	32	2
TAP	50	96	5
TAP	50	192	0
TAP	50	192	3
BRK	50	288	3
BRK	50	288	7
XTP	51	0	3
XTP	51	0	4
TAP	51	64	1
STR	51	96	7
SI_	51	96	7	96	32	2
TAP	51	128	0
TAP	51	160	5
XTP	51	192	7
TAP	51	256	6
STR	51	288	0
SI_	51	288	0	96	32	5
TAP	51	320	7
TAP	51	352	2
XTP	52	0	0
TAP	52	64	1
STR	52	96	7
SCR	52	96	7	96	32	2
TAP	52	128	0
TAP	52	160	5
XTP	52	192	7
XTP	52	256	3
XTP	52	256	4
XTP	52	320	4
XTP	52	320	6
TAP	53	0	0
TAP	53	32	5
TAP	53	64	5
TAP	53	96	4
TAP	53	128	6
TAP	53	160	6
TAP	53	192	1
TAP	53	224	7
TAP	53	256	7
TTP	53	288	0	C	0	M1
STR	54	0	2
SI_	54	0	2	96	32	7
STR	54	0	6
SI_	54	0	6	96	32	3
XTP	54	96	2
XTP	54	96	6
BRK	54	192	1
BRK	54	192	5
XTP	55	0	3
XTP	55	0	4
TAP	55	64	1
STR	55	96	0
SI_	55	96	0	96	32	4
TAP	55	128	2
TAP	55	160	3
TAP	55	192	0
TAP	55	256	6
STR	55	288	7
SI_	55	288	7	96	32	3
TAP	55	320	5
TAP	55	352	4
TAP	56	0	7
TAP	56	64	1
STR	56	96	0
SCL	56	96	0	96	32	5
TAP	56	128	2
TAP	56	160	3
XTP	56	192	0
XTP	56	256	3
XTP	56	256	4
XTP	56	320	1
XTP	56	320	3
XTP	57	0	0
XTP	57	0	5
TAP	57	64	6
STR	57	96	7
SI_	57	96	7	96	32	3
TAP	57	128	5
TAP	57	160	4
TAP	57	192	7
TAP	57	256	1
STR	57	288	0
SI_	57	288	0	96	32	5
TAP	57	320	2
TAP	57	352	3
STR	58	0	0
SI_	58	0	0	96	32	3
STR	58	96	0
SI_	58	96	0	96	32	4
TAP	58	96	3
TAP	58	192	0
TAP	58	192	4
BRK	58	288	2
BRK	58	288	7
TAP	59	0	3
TAP	59	0	4
TAP	59	64	6
STR	59	96	7
SI_	59	96	7	96	32	3
TAP	59	128	4
TAP	59	160	3
TAP	59	192	7
TAP	59	256	1
STR	59	288	0
SI_	59	288	0	96	32	4
TAP	59	320	3
TAP	59	352	4
TAP	60	0	0
TAP	60	64	6
STR	60	96	7
SCR	60	96	7	96	32	2
TAP	60	128	4
TAP	60	160	3
XTP	60	192	7
XTP	60	256	3
XTP	60	256	4
XTP	60	320	4
XTP	60	320	6
STR	61	0	0
SI_	61	0	0	96	32	2
STR	61	0	5
SI_	61	0	5	96	32	3
STR	61	96	0
SI_	61	96	0	96	32	6
STR	61	96	5
SI_	61	96	5	96	32	7
STR	61	192	0
SF_	61	192	0	96	32	4
TAP	61	192	5
BRK	61	288	0
XST	62	0	2
SCL	62	0	2	96	48	7
XST	62	0	6
SCL	62	0	6	96	48	3
BRK	62	96	2
BRK	62	96	6
XST	62	192	1
SCR	62	192	1	96	48	4
XST	62	192	5
SCR	62	192	5	96	48	0
BRK	62	288	1
BRK	62	288	5
TTP	63	0	0	B	0	M1
TTP	63	0	0	C	1	M1
TTP	63	0	4	B	0	M1
XTP	64	288	5
XTP	64	320	4
XTP	64	352	5
XHO	65	0	3	192
XHO	65	0	6	384
HLD	66	0	4	192
XTP	66	96	5
XTP	66	192	3
XTP	66	288	3
XTP	66	288	4
XTP	67	0	3
TAP	67	32	7
TAP	67	64	7
TAP	67	96	2
TAP	67	128	5
TAP	67	160	5
TAP	67	192	1
TAP	67	224	3
TAP	67	256	3
XTP	67	288	2
TAP	67	352	0
XTP	68	0	7
TAP	68	32	3
TAP	68	64	3
TAP	68	96	6
TAP	68	128	1
TAP	68	160	1
TAP	68	192	5
TAP	68	224	7
TAP	68	256	7
XTP	68	288	6
TAP	68	352	4
XTP	69	0	2
TAP	69	32	3
TAP	69	64	1
TAP	69	96	5
TAP	69	128	4
TAP	69	160	6
TAP	69	192	1
TAP	69	224	0
TAP	69	256	2
TAP	69	288	6
TAP	69	320	7
TAP	69	352	5
THO	70	0	0	192	C	0	M1
TAP	70	192	7
BRK	70	288	1
BRK	70	288	6
XTP	71	0	3
XTP	71	0	4
STR	71	64	2
SI_	71	64	2	96	32	7
STR	71	96	5
SI_	71	96	5	96	32	2
TAP	71	160	2
TAP	71	192	5
STR	71	256	0
SI_	71	256	0	96	32	2
STR	71	288	3
SI_	71	288	3	96	32	7
TAP	71	352	0
TAP	72	0	3
STR	72	64	4
SI_	72	64	4	96	32	1
STR	72	96	6
SI_	72	96	6	96	32	2
TAP	72	160	4
TAP	72	192	6
XST	72	288	0
SI_	72	288	0	96	32	4
XTP	72	288	4
STR	73	0	0
SI_	73	0	0	96	32	2
STR	73	0	5
SI_	73	0	5	96	32	7
TAP	73	96	0
STR	73	96	5
SI_	73	96	5	96	32	3
STR	73	192	0
SI_	73	192	0	96	32	3
SI_	73	192	0	96	32	5
TAP	73	192	5
TAP	73	288	0
STR	74	0	2
SV_	74	0	2	96	32	7
STR	74	0	6
SV_	74	0	6	96	32	3
TAP	74	96	2
TAP	74	96	6
BRK	74	192	1
BRK	74	192	5
XTP	74	288	0
XTP	74	288	1
XTP	74	320	2
XTP	74	320	7
XTP	74	352	3
XTP	74	352	6
XTP	75	0	4
XTP	75	0	5
STR	75	64	6
SI_	75	64	6	96	32	4
STR	75	96	3
SI_	75	96	3	96	32	7
TAP	75	160	6
TAP	75	192	3
STR	75	256	3
SI_	75	256	3	96	32	6
STR	75	288	0
SI_	75	288	0	96	32	3
TAP	75	352	3
TAP	76	0	0
STR	76	64	7
SI_	76	64	7	96	32	3
STR	76	96	2
SI_	76	96	2	96	32	0
TAP	76	160	7
TAP	76	192	2
XTP	76	288	2
XTP	76	288	6
STR	77	0	1
SI_	77	0	1	96	32	7
TAP	77	64	4
STR	77	96	1
SI_	77	96	1	96	32	3
STR	77	160	6
SI_	77	160	6	96	32	4
TAP	77	192	1
STR	77	256	6
SI_	77	256	6	96	32	0
STR	77	288	1
SI_	77	288	1	96	32	5
TAP	77	352	6
BRK	78	0	1
STR	78	96	3
SF_	78	96	3	96	32	7
XTP	78	192	3
BRK	78	288	1
BRK	78	288	5
XTP	79	0	0
XTP	79	0	7
TAP	79	64	6
STR	79	96	4
SI_	79	96	4	96	32	0
TAP	79	128	5
TAP	79	160	3
TAP	79	192	4
TAP	79	256	1
STR	79	288	7
SI_	79	288	7	96	32	3
TAP	79	320	0
TAP	79	352	6
STR	80	0	7
SCL	80	0	7	96	96	2
STR	80	96	2
SCR	80	96	2	96	96	7
TAP	80	192	0
TAP	80	288	2
TAP	81	0	2
TAP	81	0	7
TAP	81	64	1
STR	81	96	3
SI_	81	96	3	96	32	7
TAP	81	128	2
TAP	81	160	4
TAP	81	192	3
TAP	81	256	6
STR	81	288	0
SI_	81	288	0	96	32	4
TAP	81	320	7
TAP	81	352	1
STR	82	0	0
SCR	82	0	0	96	96	5
STR	82	96	5
SCL	82	96	5	96	96	0
TAP	82	192	7
XTP	82	288	5
TAP	83	0	3
TAP	83	0	4
TAP	83	64	2
STR	83	96	0
SI_	83	96	0	96	32	4
TAP	83	128	1
TAP	83	160	7
TAP	83	192	0
TAP	83	256	5
STR	83	288	3
SI_	83	288	3	96	32	7
TAP	83	320	4
TAP	83	352	2
STR	84	0	3
SCL	84	0	3	96	96	6
STR	84	96	6
SCR	84	96	6	96	96	3
TAP	84	192	4
XTP	84	288	6
TAP	85	0	1
TAP	85	32	1
TAP	85	64	3
TAP	85	96	4
TAP	85	128	4
TAP	85	160	6
TAP	85	192	1
TAP	85	224	1
TAP	85	256	3
TAP	85	288	4
TAP	85	320	4
TAP	85	352	6
BRK	86	0	1
TAP	86	32	1
TTP	86	64	3	B	0	M1
TTP	86	64	3	E	0	M1
BRK	86	96	7
TAP	86	128	7
TTP	86	160	5	B	0	M1
TTP	86	160	6	E	0	M1
BST	86	192	0
SF_	86	192	0	96	32	4
TTP	86	288	0	C	1	M1
BRK	87	0	2
BRK	87	0	6
TTP	88	288	3	B	0	M1
TTP	88	288	3	E	0	M1
TTP	88	320	5	B	0	M1
TTP	88	320	6	B	0	M1
TTP	88	352	0	B	0	M1
TTP	88	352	1	E	0	M1
THO	89	0	0	192	C	0	M1
TAP	90	0	7
TAP	90	32	1
TTP	90	64	4	B	0	M1
TTP	90	64	5	E	0	M1
TAP	90	96	0
TAP	90	128	6
TTP	90	160	3	B	0	M1
TTP	90	160	3	E	0	M1
TTP	90	192	0	C	1	M1
XHO	91	0	3	64
XHO	91	0	6	64
TAP	91	96	5
TAP	91	128	4
TAP	91	160	5
XHO	91	192	1	64
XHO	91	192	4	64
TAP	91	288	2
TAP	91	320	3
TAP	91	352	2
XHO	92	0	0	64
XHO	92	0	5	64
TAP	92	96	6
TAP	92	128	7
TAP	92	160	6
XHO	92	192	2	64
XHO	92	192	7	64
TAP	92	288	1
TAP	92	320	0
TAP	92	352	1
TAP	93	0	6
TAP	93	32	6
TAP	93	64	4
TAP	93	96	3
TAP	93	128	1
TAP	93	160	1
TAP	93	192	5
TAP	93	224	5
TAP	93	256	7
TAP	93	288	0
TAP	93	320	2
TAP	93	352	2
TAP	94	0	6
TAP	94	32	4
TAP	94	64	5
TAP	94	96	0
TAP	94	128	2
TAP	94	160	1
XTP	94	192	6
TAP	94	204	5
TAP	94	216	4
TAP	94	228	3
TAP	94	240	2
TAP	94	252	1
TAP	94	264	0
TAP	94	276	7
BRK	94	288	2
BRK	94	288	6
XST	95	0	1
SI_	95	0	1	96	32	7
XST	95	0	5
SI_	95	0	5	96	32	3
STR	95	96	1
SI_	95	96	1	96	32	5
TAP	95	96	5
XST	95	192	1
SCR	95	192	1	96	32	4
XST	95	192	5
SCR	95	192	5	96	32	0
XTP	95	288	1
XTP	95	288	5
XST	96	0	2
SI_	96	0	2	96	32	4
XST	96	0	6
SI_	96	0	6	96	32	0
TAP	96	96	2
STR	96	96	6
SI_	96	96	6	96	32	2
XST	96	192	2
SCL	96	192	2	96	32	7
XST	96	192	6
SCL	96	192	6	96	32	3
XTP	96	288	2
XTP	96	288	6
XTP	97	0	1
XHO	97	0	5	192
HLD	97	192	4	96
HLD	97	288	3	96
HLD	98	0	2	288
TAP	98	192	1
TAP	98	288	3
TAP	99	0	3
TAP	99	24	4
TAP	99	48	3
TAP	99	64	4
STR	99	72	2
SI_	99	72	2	96	576	5
TAP	99	80	3
TAP	99	88	4

T_REC_TAP	295
T_REC_BRK	34
T_REC_XTP	86
T_REC_HLD	14
T_REC_XHO	11
T_REC_STR	102
T_REC_BST	3
T_REC_XST	17
T_REC_TTP	124
T_REC_THO	4
T_REC_SLD	123
T_REC_ALL	813
T_NUM_TAP	624
T_NUM_BRK	37
T_NUM_HLD	29
T_NUM_SLD	123
T_NUM_ALL	813
T_JUDGE_TAP	661
T_JUDGE_HLD	126
T_JUDGE_SLD	123
T_JUDGE_ALL	910
TTM_EACHPAIRS	107
TTM_SCR_TAP	312000
TTM_SCR_BRK	96200
TTM_SCR_HLD	29000
TTM_SCR_SLD	184500
TTM_SCR_ALL	621700
TTM_SCR_S	599500
TTM_SCR_SS	618000
TTM_RAT_ACV	10059

