VERSION	0.00.00	1.03.00
FES_MODE	0
BPM_DEF	170.000	170.000	170.000	 96.000
MET_DEF	4	4
RESOLUTION	384
CLK_DEF	384
COMPATIBLE_CODE	MA2

BPM	0	0	170.000
BPM	95	0	168.000
BPM	96	0	158.000
BPM	97	0	146.000
BPM	98	0	134.000
BPM	98	192	122.000
BPM	99	0	112.000
BPM	102	0	 96.000
MET	0	0	4	4

TAP	2	0	3
TAP	2	0	4
TAP	2	96	5
TAP	2	192	5
TAP	2	288	5
TAP	3	0	3
TAP	3	0	4
TAP	3	96	2
TAP	3	192	2
TAP	3	288	2
TAP	4	0	3
TAP	4	0	4
TAP	4	64	5
TAP	4	96	4
TAP	4	160	4
TAP	4	192	3
TAP	4	288	2
TAP	4	288	3
TAP	5	0	3
TAP	5	0	4
TAP	5	64	5
TAP	5	96	4
TAP	5	160	4
TAP	5	192	3
TAP	5	288	2
TAP	5	288	3
TAP	6	0	3
TAP	6	0	4
TAP	6	64	5
TAP	6	96	4
TAP	6	160	4
TAP	6	192	3
TAP	6	288	2
TAP	6	288	3
TAP	7	0	4
TAP	7	32	3
TAP	7	64	5
TAP	7	96	2
HLD	7	192	1	96
HLD	7	192	6	96
TAP	8	0	2
TAP	8	64	2
TAP	8	96	3
TAP	8	160	3
TAP	8	192	4
TAP	8	288	4
TAP	8	288	5
TAP	9	0	3
TAP	9	0	4
TAP	9	64	2
TAP	9	96	3
TAP	9	160	3
TAP	9	192	4
TAP	9	288	4
TAP	9	288	5
TAP	10	0	3
TAP	10	0	4
TAP	10	64	2
TAP	10	96	3
TAP	10	160	3
TAP	10	192	4
TAP	10	288	4
TAP	10	288	5
TAP	11	0	3
TAP	11	64	3
TAP	11	96	5
TAP	11	160	5
TAP	11	192	1
TAP	11	256	1
STR	11	288	7
SCL	11	288	7	96	48	4
BRK	12	0	0
HLD	12	96	1	64
TAP	12	160	0
TAP	12	192	1
HLD	12	288	6	64
TAP	12	352	7
TAP	13	0	6
HLD	13	96	2	64
TAP	13	160	3
TAP	13	192	1
HLD	13	288	5	64
TAP	13	352	4
TAP	14	0	6
HLD	14	96	1	64
TAP	14	160	0
TAP	14	192	2
HLD	14	288	6	64
TAP	14	352	7
STR	15	0	5
SI_	15	0	5	96	48	2
TAP	15	96	0
TAP	15	192	7
STR	15	288	0
SCR	15	288	0	96	48	3
BRK	16	0	7
HLD	16	96	6	64
TAP	16	160	7
TAP	16	192	6
HLD	16	288	1	64
TAP	16	352	0
TAP	17	0	1
HLD	17	96	6	64
TAP	17	160	7
STR	17	192	5
SCL	17	192	5	96	48	2
TAP	18	0	0
TAP	18	96	6
TAP	18	96	7
TAP	18	192	4
TAP	18	192	5
TAP	18	288	2
TAP	18	288	3
XTP	19	0	0
XST	19	0	1
SI_	19	0	1	96	48	3
XST	19	96	7
SI_	19	96	7	96	48	5
XST	19	192	0
SI_	19	192	0	96	48	4
XST	19	288	7
SCL	19	288	7	96	720	0
HLD	22	0	2	384
HLD	23	0	3	384
TTP	23	192	4	E	0	M1
HLD	24	0	4	384
TTP	24	192	4	E	0	M1
HLD	25	0	5	192
TAP	25	192	4
TAP	25	288	5
HLD	26	0	6	192
HLD	26	192	4	192
HLD	27	0	3	192
HLD	27	192	1	192
TAP	28	0	2
TAP	28	96	2
TAP	28	96	3
TAP	28	192	3
TAP	28	192	4
TAP	28	288	4
TAP	28	288	5
XST	29	0	5
SI_	29	0	5	96	48	0
XTP	29	0	6
XTP	29	192	1
XST	29	192	2
SI_	29	192	2	96	48	7
XTP	30	0	6
TAP	30	64	6
TAP	30	96	5
TAP	30	160	5
TAP	30	192	4
TAP	30	256	4
TAP	30	288	3
TAP	30	352	3
TAP	31	0	2
TAP	31	64	2
TAP	31	96	1
TAP	31	160	1
HLD	31	192	0	96
TAP	31	288	7
XTP	32	0	1
XTP	32	0	6
TAP	32	96	5
TAP	32	160	5
XTP	32	192	4
XTP	32	192	6
TAP	32	288	2
TAP	32	352	2
XST	33	0	1
SI_	33	0	1	96	48	4
XTP	33	0	3
BRK	33	96	7
BST	33	192	6
SI_	33	192	6	96	48	3
BRK	33	288	0
TAP	34	0	1
TAP	34	0	2
TAP	34	64	1
TAP	34	96	2
TAP	34	160	2
TAP	34	192	3
TAP	34	256	3
TAP	34	288	4
TAP	34	352	4
TAP	35	0	5
TAP	35	64	5
TAP	35	96	6
TAP	35	160	6
XTP	35	192	0
XTP	35	192	7
XTP	35	288	0
XTP	35	320	7
XTP	35	352	0
XTP	36	0	7
XTP	36	96	5
XTP	36	128	4
XTP	36	160	6
XTP	36	192	4
XTP	36	288	2
XTP	36	320	3
XTP	36	352	1
XST	37	0	3
SI_	37	0	3	96	48	7
BRK	37	96	0
TTP	37	192	0	C	1	M1
TTP	37	192	1	B	0	M1
TTP	37	192	5	B	0	M1
HLD	38	0	2	160
TAP	38	160	3
TAP	38	192	2
TTP	38	288	2	E	0	M1
TTP	39	0	1	E	0	M1
TTP	39	96	0	E	0	M1
TTP	39	192	7	E	0	M1
TTP	39	288	6	E	0	M1
HLD	40	0	5	160
TAP	40	160	4
TAP	40	192	5
TTP	40	288	6	B	0	M1
TTP	41	0	7	B	0	M1
TTP	41	96	0	B	0	M1
TTP	41	192	1	B	0	M1
HLD	42	0	3	160
TAP	42	160	4
TAP	42	192	3
TAP	42	288	2
TAP	43	0	1
TAP	43	96	0
TAP	43	96	7
TAP	43	192	6
TAP	43	288	5
HLD	44	0	4	160
TAP	44	160	3
TAP	44	192	4
TAP	44	288	1
TAP	44	352	1
XTP	45	0	0
XTP	45	0	2
TAP	45	96	4
TAP	45	160	4
XTP	45	192	3
XTP	45	192	4
TAP	45	288	6
TAP	45	352	6
XTP	46	0	5
XTP	46	0	7
TAP	46	96	2
TAP	46	128	3
TAP	46	160	1
TAP	46	192	5
TAP	46	224	4
TAP	46	256	6
TAP	46	288	0
TAP	46	320	7
TAP	46	352	0
XTP	47	0	1
XTP	47	0	6
TAP	47	96	5
TAP	47	128	4
TAP	47	160	5
XTP	47	192	1
TAP	47	288	2
TAP	47	320	3
TAP	47	352	2
XTP	48	0	6
TAP	48	96	3
TAP	48	128	4
TAP	48	160	3
XST	48	192	5
SI_	48	192	5	96	48	0
XST	48	288	2
SI_	48	288	2	96	48	7
XTP	49	0	5
TAP	49	96	6
TAP	49	128	7
TAP	49	160	6
XTP	49	192	0
TAP	49	288	1
TAP	49	320	0
TAP	49	352	1
XST	50	0	7
SCL	50	0	7	96	48	4
XST	50	96	0
SI_	50	96	0	96	48	4
XST	50	192	7
SI_	50	192	7	96	48	3
XST	50	288	0
SCR	50	288	0	96	48	3
BRK	51	0	7
TAP	51	96	5
TAP	51	128	4
TAP	51	160	5
XTP	51	192	0
TAP	51	288	2
TAP	51	320	3
TAP	51	352	2
XTP	52	0	7
TAP	52	96	0
TAP	52	128	7
TAP	52	160	0
XST	52	192	1
SCR	52	192	1	96	48	3
XST	52	192	6
SCL	52	192	6	96	48	4
XST	53	0	0
SI_	53	0	0	96	48	4
XTP	53	0	7
TAP	53	96	5
XTP	53	192	0
XST	53	192	7
SI_	53	192	7	96	48	3
TAP	53	288	2
XST	54	0	0
SCR	54	0	0	96	48	3
XST	54	0	4
SCR	54	0	4	96	48	7
TTP	54	192	0	B	0	M1
TTP	54	192	0	C	1	M1
TTP	54	192	3	B	0	M1
TTP	54	192	4	B	0	M1
TTP	54	192	7	B	0	M1
XTP	55	0	0
XTP	55	0	7
TAP	55	64	0
TAP	55	96	7
TAP	55	160	7
TAP	55	192	5
TAP	55	256	5
TAP	55	288	7
TAP	55	352	7
TAP	56	0	0
TAP	56	64	0
TAP	56	96	2
TAP	56	160	2
TAP	56	192	0
TAP	56	256	0
TAP	56	288	7
TAP	56	352	7
TAP	57	0	5
TAP	57	64	5
TAP	57	96	7
TAP	57	160	7
TAP	57	192	0
TAP	57	256	0
TAP	57	288	2
TAP	57	352	2
XST	58	0	0
SCR	58	0	0	96	48	3
XTP	58	96	4
XST	58	192	7
SCL	58	192	7	96	48	4
BRK	58	288	3
XTP	59	0	0
XTP	59	0	7
TAP	59	64	7
TAP	59	96	0
TAP	59	160	0
TAP	59	192	2
TAP	59	256	2
TAP	59	288	0
TAP	59	352	0
TAP	60	0	7
TAP	60	64	7
TAP	60	96	5
TAP	60	160	5
TAP	60	192	7
TAP	60	256	7
TAP	60	288	0
TAP	60	352	0
HLD	61	0	2	96
HLD	61	96	3	96
HLD	61	192	4	96
STR	61	288	5
SCR	61	288	5	96	144	2
STR	62	192	3
SI_	62	192	3	96	48	0
STR	62	192	7
SI_	62	192	7	96	48	4
TTP	63	0	0	C	0	M1
TTP	63	192	0	C	0	M1
TTP	64	0	0	C	0	M1
TTP	64	192	0	C	0	M1
XTP	64	288	4
XTP	64	320	3
XTP	64	352	4
TTP	65	0	0	C	0	M1
TTP	65	192	0	C	0	M1
TTP	66	0	0	C	0	M1
TTP	66	96	2	E	0	M1
TTP	66	96	6	E	0	M1
TTP	66	192	0	C	0	M1
TTP	67	0	0	C	0	M1
TTP	67	0	3	B	0	M1
TTP	67	0	4	B	0	M1
TTP	67	0	4	E	0	M1
TTP	67	192	0	C	0	M1
TTP	67	192	1	B	0	M1
TTP	67	192	2	B	0	M1
TTP	67	192	2	E	0	M1
TTP	68	0	0	C	0	M1
TTP	68	0	5	B	0	M1
TTP	68	0	6	B	0	M1
TTP	68	0	6	E	0	M1
TTP	68	192	0	B	0	M1
TTP	68	192	0	C	0	M1
TTP	68	192	0	E	0	M1
TTP	68	192	1	B	0	M1
TTP	68	192	6	B	0	M1
TTP	68	192	7	B	0	M1
TTP	69	0	0	C	0	M1
TTP	69	0	4	E	0	M1
TTP	69	96	0	C	0	M1
TTP	69	96	3	E	0	M1
TTP	69	192	0	C	0	M1
TTP	69	192	2	E	0	M1
TTP	69	288	0	C	0	M1
TTP	69	288	1	E	0	M1
TTP	70	0	0	C	0	M1
TTP	70	0	0	E	0	M1
TTP	70	96	0	C	0	M1
TTP	70	96	7	E	0	M1
TTP	70	192	0	C	0	M1
TTP	70	192	6	E	0	M1
TTP	70	288	0	C	0	M1
TTP	70	288	5	E	0	M1
TTP	71	0	0	C	0	M1
TTP	71	0	4	E	0	M1
STR	71	288	5
SCR	71	288	5	96	192	3
HLD	72	0	4	192
STR	72	288	1
SCL	72	288	1	96	192	3
HLD	73	0	2	192
STR	73	288	5
SCL	73	288	5	96	192	7
HLD	74	0	6	192
STR	74	288	1
SCR	74	288	1	96	192	7
HLD	75	0	0	192
STR	75	288	6
SCL	75	288	6	96	192	0
HLD	76	0	7	192
STR	76	288	2
SCR	76	288	2	96	192	0
HLD	77	0	1	192
STR	77	288	6
SCR	77	288	6	96	192	4
HLD	78	0	5	192
STR	79	0	2
SXR	79	0	2	96	192	4
HLD	79	0	5	384
TAP	80	0	3
STR	80	96	6
SUL	80	96	6	96	96	2
TAP	80	192	1
HLD	81	0	2	384
STR	81	0	5
SXL	81	0	5	96	192	3
TAP	82	0	4
STR	82	96	1
SUR	82	96	1	96	96	5
TAP	82	192	6
HLD	83	0	6	384
HLD	83	192	1	192
HLD	84	96	4	96
HLD	84	192	3	96
STR	84	288	2
SCL	84	288	2	96	288	5
HLD	86	0	1	192
XTP	86	192	6
XTP	86	288	3
XTP	86	288	4
BRK	87	0	0
BRK	87	0	7
TTP	87	192	2	E	0	M1
TTP	88	0	6	E	0	M1
TTP	88	192	0	C	0	M1
XTP	88	288	0
XTP	88	288	7
XTP	88	320	1
XTP	88	320	6
XTP	88	352	2
XTP	88	352	5
XTP	89	0	3
XTP	89	0	4
TTP	89	192	0	C	0	M1
TTP	89	192	1	B	0	M1
TTP	89	192	6	B	0	M1
TAP	90	0	3
TAP	90	0	4
STR	90	96	0
SUL	90	96	0	96	96	3
STR	90	96	7
SUR	90	96	7	96	96	4
BRK	91	0	1
BRK	91	0	6
XTP	91	96	2
XTP	91	128	3
XTP	91	160	2
XTP	91	192	1
XTP	91	192	4
XTP	91	288	5
XTP	91	320	4
XTP	91	352	5
XTP	92	0	3
XTP	92	0	6
XTP	92	96	0
XTP	92	128	7
XTP	92	160	0
XST	92	192	1
SI_	92	192	1	96	48	4
XST	92	192	6
SI_	92	192	6	96	48	3
XTP	93	0	2
TAP	93	32	3
TAP	93	64	2
XTP	93	96	5
TAP	93	128	4
TAP	93	160	5
XTP	93	192	2
TAP	93	224	3
TAP	93	256	1
XTP	93	288	5
TAP	93	320	4
TAP	93	352	6
XTP	94	0	1
TAP	94	32	0
TAP	94	64	1
XTP	94	96	6
TAP	94	128	7
TAP	94	160	6
XTP	94	192	0
TAP	94	224	7
TAP	94	256	0
BRK	94	288	1
BRK	94	288	6
XTP	95	0	3
XTP	95	0	4
TAP	95	64	1
TAP	95	96	2
TAP	95	160	2
TAP	95	192	3
TAP	95	256	3
TAP	95	288	4
TAP	95	352	4
XTP	96	0	5
TAP	96	64	5
TAP	96	96	6
TAP	96	160	0
TAP	96	160	7
TAP	96	192	0
TAP	96	192	7
TAP	96	288	2
TAP	96	320	5
TAP	96	352	3
XHO	97	0	4	384
TAP	97	192	1
TAP	97	288	2
HLD	98	0	3	192
TAP	98	160	4
HLD	98	192	4	96
TAP	98	288	3
TAP	98	320	4
TAP	98	352	3
TAP	99	0	5
TAP	99	24	4
TAP	99	48	3
TAP	99	64	2
HLD	99	96	3	632
HLD	99	96	4	640

T_REC_TAP	269
T_REC_BRK	13
T_REC_XTP	80
T_REC_HLD	45
T_REC_XHO	1
T_REC_STR	21
T_REC_BST	1
T_REC_XST	24
T_REC_TTP	71
T_REC_THO	0
T_REC_SLD	46
T_REC_ALL	571
T_NUM_TAP	465
T_NUM_BRK	14
T_NUM_HLD	46
T_NUM_SLD	46
T_NUM_ALL	571
T_JUDGE_TAP	479
T_JUDGE_HLD	222
T_JUDGE_SLD	46
T_JUDGE_ALL	747
TTM_EACHPAIRS	59
TTM_SCR_TAP	232500
TTM_SCR_BRK	36400
TTM_SCR_HLD	46000
TTM_SCR_SLD	69000
TTM_SCR_ALL	383900
TTM_SCR_S	371050
TTM_SCR_SS	382500
TTM_RAT_ACV	10036

