VERSION	0.00.00	1.03.00
FES_MODE	0
BPM_DEF	170.000	170.000	170.000	 96.000
MET_DEF	4	4
RESOLUTION	384
CLK_DEF	384
COMPATIBLE_CODE	MA2

BPM	0	0	170.000
BPM	95	0	168.000
BPM	96	0	158.000
BPM	97	0	146.000
BPM	98	0	134.000
BPM	98	192	122.000
BPM	99	0	112.000
BPM	102	0	 96.000
MET	0	0	4	4

TTP	2	0	5	B	0	L1
TTP	2	0	5	E	0	L1
TTP	2	192	2	B	0	L1
TTP	2	192	3	E	0	L1
TTP	3	0	3	B	0	L1
TTP	3	0	4	B	0	L1
TTP	3	192	0	C	0	L1
TTP	4	0	6	E	0	L1
TTP	4	96	5	B	0	L1
TTP	4	192	4	B	0	L1
TTP	5	0	2	E	0	L1
TTP	5	96	2	B	0	L1
TTP	5	192	3	B	0	L1
TTP	6	0	5	B	0	L1
TTP	6	0	6	B	0	L1
TTP	6	192	1	B	0	L1
TTP	6	192	2	B	0	L1
THO	7	0	0	192	C	0	L1
TTP	8	0	2	E	0	L1
TTP	8	96	1	B	0	L1
TTP	8	192	0	B	0	L1
TTP	9	0	6	E	0	L1
TTP	9	96	6	B	0	L1
TTP	9	192	7	B	0	L1
TTP	10	0	1	B	0	L1
TTP	10	0	2	B	0	L1
TTP	10	192	4	B	0	L1
TTP	10	192	5	B	0	L1
THO	11	0	0	192	C	1	L1
XTP	12	0	0
TAP	12	96	0
TAP	12	192	1
TAP	12	288	2
TAP	13	0	3
TAP	13	0	4
TAP	13	96	5
TAP	13	192	3
TAP	13	192	6
TAP	14	0	7
TAP	14	96	7
TAP	14	192	6
TAP	14	288	5
TAP	15	0	3
TAP	15	0	4
TAP	15	96	2
XTP	15	192	1
XTP	15	192	4
TAP	16	0	1
TAP	16	96	0
TAP	16	192	2
TAP	16	192	7
TAP	16	288	2
TAP	16	288	7
TAP	17	0	6
TAP	17	96	7
TAP	17	192	0
TAP	17	192	5
TAP	18	0	6
TAP	18	96	7
TAP	18	192	0
TAP	18	288	1
TAP	19	0	0
TAP	19	0	7
TAP	19	96	0
TAP	19	96	7
TAP	19	192	1
TAP	19	192	6
TAP	19	288	1
TAP	19	288	6
BST	20	0	2
SLL	20	0	2	96	480	3
BST	20	0	5
SLR	20	0	5	96	480	4
HLD	22	0	5	384
HLD	23	0	4	384
HLD	24	0	3	384
TAP	25	0	2
TAP	25	192	2
TAP	25	192	3
HLD	26	0	5	192
TAP	26	192	4
HLD	27	0	2	192
TAP	27	192	3
HLD	28	0	4	192
HLD	28	192	2	192
TAP	29	0	3
TAP	29	96	3
XTP	29	192	2
XTP	29	192	3
TAP	30	0	2
TAP	30	96	2
TAP	30	192	1
TAP	30	288	1
TAP	31	0	1
TAP	31	0	3
TAP	31	96	1
TAP	31	96	3
TAP	31	192	1
TAP	31	192	3
TAP	32	0	6
TAP	32	96	6
TAP	32	192	7
TAP	32	288	7
TAP	33	0	1
TAP	33	0	7
TAP	33	96	1
TAP	33	96	7
XTP	33	192	1
XTP	33	192	7
HLD	34	0	2	96
TAP	34	96	3
TAP	34	192	1
TAP	34	192	4
TAP	34	288	1
TAP	34	288	4
HLD	35	0	5	96
TAP	35	96	4
TAP	35	192	3
TAP	35	192	6
XHO	36	0	6	96
XHO	36	0	7	96
XHO	36	192	0	96
XHO	36	192	1	96
TAP	37	0	0
TAP	37	0	7
TAP	37	96	1
TAP	37	96	6
BRK	37	192	2
BRK	37	192	5
STR	38	0	3
SXR	38	0	3	96	480	0
STR	40	0	7
SXR	40	0	7	96	480	4
STR	42	0	3
SCL	42	0	3	96	192	0
STR	43	0	7
SCL	43	0	7	96	192	4
HLD	44	0	2	192
TAP	44	192	3
TAP	44	288	4
HLD	45	0	5	192
TAP	45	192	4
TAP	45	288	6
HLD	46	0	0	96
HLD	46	0	7	96
BRK	46	192	1
BRK	46	192	6
TAP	47	0	2
TAP	47	96	1
TAP	47	96	3
TAP	47	192	5
TAP	47	288	4
TAP	47	288	6
TAP	48	0	2
TAP	48	0	3
TAP	48	96	2
TAP	48	96	3
TAP	48	192	1
TAP	48	192	4
TAP	48	288	1
TAP	48	288	4
TAP	49	0	5
TAP	49	96	4
TAP	49	96	6
TAP	49	192	2
TAP	49	288	1
TAP	49	288	3
TAP	50	0	4
TAP	50	0	5
TAP	50	96	3
TAP	50	96	6
XTP	50	192	2
XTP	50	192	7
TAP	51	0	1
TAP	51	96	0
TAP	51	96	1
TAP	51	192	2
TAP	51	192	7
TAP	51	288	2
TAP	51	288	7
TAP	52	0	6
TAP	52	96	6
TAP	52	96	7
TAP	52	192	0
TAP	52	192	5
HLD	53	0	4	96
HLD	53	0	6	96
HLD	53	192	1	96
HLD	53	192	3	96
BRK	54	0	3
BRK	54	0	4
BRK	54	96	2
BRK	54	96	5
BRK	54	192	1
BRK	54	192	6
HLD	55	0	2	96
TAP	55	96	3
HLD	55	192	5	96
TAP	55	288	4
HLD	56	0	1	96
TAP	56	96	3
TAP	56	192	4
TAP	56	288	3
TAP	56	288	5
HLD	57	0	6	96
TAP	57	96	7
HLD	57	192	1	96
TAP	57	288	0
TAP	58	0	0
TAP	58	0	7
TAP	58	96	1
TAP	58	96	6
XTP	58	192	2
XTP	58	192	5
HLD	59	0	1	96
HLD	59	0	3	96
TAP	59	192	1
TAP	59	192	3
TAP	59	288	2
HLD	60	0	3	96
HLD	60	0	4	96
TAP	60	192	5
TAP	60	288	4
TAP	60	288	6
STR	61	0	7
SCL	61	0	7	96	288	0
XTP	62	192	0
XTP	62	192	7
XTP	62	288	0
XTP	62	288	7
BRK	63	0	1
BRK	63	0	6
THO	65	0	0	384	C	0	L1
TTP	66	192	2	B	0	L1
TTP	66	192	5	B	0	L1
TTP	67	0	6	E	0	L1
TTP	67	96	5	B	0	L1
TTP	67	192	4	B	0	L1
TTP	67	288	4	E	0	L1
TTP	68	0	3	B	0	L1
TTP	68	96	2	B	0	L1
TTP	68	192	2	E	0	L1
TTP	69	0	0	B	0	L1
TTP	69	0	6	B	0	L1
TTP	69	192	1	B	0	L1
TTP	69	192	7	B	0	L1
THO	70	0	0	192	C	1	L1
TAP	71	0	0
TAP	71	0	7
TAP	71	96	0
TAP	71	96	7
TAP	71	192	1
TAP	71	288	2
TAP	72	0	3
TAP	72	0	4
TAP	72	96	5
TAP	72	192	4
TAP	72	192	6
STR	73	0	7
SI_	73	0	7	96	96	4
TAP	73	192	3
TAP	73	288	3
STR	74	0	3
SI_	74	0	3	96	96	0
TAP	74	192	7
XTP	74	288	7
TAP	75	0	0
TAP	75	0	6
TAP	75	96	0
TAP	75	96	6
TAP	75	192	5
TAP	75	288	4
TAP	76	0	2
TAP	76	0	3
TAP	76	96	2
TAP	76	96	3
TAP	76	192	1
TAP	76	192	4
STR	77	0	5
SI_	77	0	5	96	96	2
TAP	77	192	1
TAP	77	288	1
TAP	78	0	0
TAP	78	96	1
TAP	78	96	7
XTP	78	192	2
XTP	78	192	6
TAP	79	0	4
TAP	79	0	5
TAP	79	96	6
TAP	79	192	2
TAP	79	192	3
TAP	79	288	1
TAP	80	0	4
TAP	80	0	5
TAP	80	96	6
TAP	80	192	0
TAP	80	192	7
TAP	80	288	1
TAP	81	0	2
TAP	81	0	3
TAP	81	96	1
TAP	81	96	4
TAP	81	192	4
TAP	81	192	5
TAP	81	288	3
TAP	81	288	6
TAP	82	0	2
TAP	82	0	3
TAP	82	96	1
TAP	82	96	4
XTP	82	192	0
XTP	82	192	5
TAP	83	0	6
TAP	83	0	7
TAP	83	96	5
TAP	83	192	0
TAP	83	192	1
TAP	83	288	2
TAP	84	0	6
TAP	84	0	7
TAP	84	96	5
TAP	84	192	3
TAP	84	192	4
TAP	84	288	2
TAP	85	0	0
TAP	85	0	1
TAP	85	96	2
TAP	85	96	7
TAP	85	192	6
TAP	85	192	7
TAP	85	288	0
TAP	85	288	5
STR	86	0	1
SI_	86	0	1	96	144	4
STR	86	0	6
SI_	86	0	6	96	144	3
BRK	87	0	2
BRK	87	0	5
TTP	89	0	0	C	1	L1
TTP	90	0	3	B	0	L1
TTP	90	0	4	B	0	L1
TTP	90	192	2	E	0	L1
TTP	90	192	6	E	0	L1
STR	91	0	6
SI_	91	0	6	96	144	3
STR	91	0	7
SI_	91	0	7	96	144	2
STR	92	0	0
SI_	92	0	0	96	144	5
STR	92	0	1
SI_	92	0	1	96	144	4
STR	93	0	6
SCL	93	0	6	96	144	3
STR	93	0	7
SCR	93	0	7	96	144	2
THO	94	0	0	192	C	0	L1
TAP	95	0	0
TAP	95	0	1
TAP	95	96	0
TAP	95	96	1
TAP	95	192	0
TAP	95	192	1
TAP	95	288	0
TAP	95	288	1
TAP	96	0	6
TAP	96	0	7
TAP	96	96	6
TAP	96	96	7
TAP	96	192	6
TAP	96	192	7
TAP	96	288	6
TAP	96	288	7
HLD	97	0	5	384
HLD	98	0	4	384
THO	99	0	0	744	C	0	L1

T_REC_TAP	223
T_REC_BRK	14
T_REC_XTP	20
T_REC_HLD	28
T_REC_XHO	4
T_REC_STR	16
T_REC_BST	2
T_REC_XST	0
T_REC_TTP	45
T_REC_THO	6
T_REC_SLD	18
T_REC_ALL	376
T_NUM_TAP	304
T_NUM_BRK	16
T_NUM_HLD	38
T_NUM_SLD	18
T_NUM_ALL	376
T_JUDGE_TAP	320
T_JUDGE_HLD	161
T_JUDGE_SLD	18
T_JUDGE_ALL	499
TTM_EACHPAIRS	105
TTM_SCR_TAP	152000
TTM_SCR_BRK	41600
TTM_SCR_HLD	38000
TTM_SCR_SLD	27000
TTM_SCR_ALL	258600
TTM_SCR_S	249300
TTM_SCR_SS	257000
TTM_RAT_ACV	10062

