VERSION	0.00.00	1.03.00
FES_MODE	0
BPM_DEF	170.000	170.000	170.000	 96.000
MET_DEF	4	4
RESOLUTION	384
CLK_DEF	384
COMPATIBLE_CODE	MA2

BPM	0	0	170.000
BPM	95	0	168.000
BPM	96	0	158.000
BPM	97	0	146.000
BPM	98	0	134.000
BPM	98	192	122.000
BPM	99	0	112.000
BPM	102	0	 96.000
MET	0	0	4	4

TAP	8	0	3
TAP	8	192	3
TAP	9	0	3
TAP	10	0	4
TAP	10	192	4
TAP	11	0	4
TAP	12	0	3
TAP	12	192	3
TAP	13	0	2
TAP	13	192	2
TAP	14	0	1
TAP	14	192	1
HLD	15	0	0	192
TAP	16	0	7
TAP	16	192	7
TAP	17	0	6
TAP	17	192	6
TAP	18	0	5
TAP	18	192	5
HLD	19	0	4	192
STR	20	0	3
SI_	20	0	3	96	288	0
STR	22	0	4
SI_	22	0	4	96	288	7
HLD	24	0	0	384
TAP	26	0	7
TAP	27	0	7
TAP	28	0	0
TAP	29	0	0
TAP	29	0	7
BRK	29	192	0
BRK	29	192	7
TAP	30	0	0
TAP	30	192	0
TAP	31	0	1
TAP	31	192	1
TAP	32	0	2
TAP	32	192	2
TAP	33	0	2
TAP	33	0	3
TAP	33	192	2
TAP	33	192	3
TAP	34	0	4
TAP	34	192	4
TAP	35	0	5
TAP	35	192	5
TAP	36	0	6
TAP	36	192	6
XTP	37	0	6
XTP	37	0	7
TTP	38	0	6	B	0	L1
TTP	39	0	5	B	0	L1
TTP	40	0	4	B	0	L1
TTP	41	0	3	B	0	L1
TTP	42	0	2	B	0	L1
TTP	43	0	1	B	0	L1
TTP	44	0	0	B	0	L1
TTP	44	0	7	B	0	L1
THO	45	0	0	384	C	1	L1
TAP	47	0	7
TAP	47	192	7
TAP	48	0	6
TAP	48	96	6
TAP	48	192	6
TAP	49	0	5
TAP	49	192	5
TAP	50	0	4
TAP	50	96	4
TAP	50	192	3
TAP	50	192	4
TAP	51	0	3
TAP	51	192	3
TAP	52	0	2
TAP	52	96	2
TAP	52	192	2
TAP	53	0	1
TAP	53	192	1
TAP	54	0	0
TAP	54	96	0
BRK	54	192	0
BRK	54	192	7
TAP	55	0	1
TAP	55	192	2
TAP	56	0	3
TAP	56	192	4
TAP	57	0	5
TAP	57	192	6
HLD	58	0	6	192
HLD	58	0	7	192
TAP	59	0	6
TAP	59	192	5
TAP	60	0	4
TAP	60	192	3
TAP	61	0	2
TAP	61	192	1
HLD	62	0	0	192
HLD	62	0	1	192
TTP	63	0	2	E	0	L1
TTP	64	0	3	B	0	L1
TTP	64	0	4	B	0	L1
TTP	65	0	6	E	0	L1
TTP	66	0	3	B	0	L1
TTP	66	0	4	B	0	L1
TTP	67	0	2	B	0	L1
TTP	67	0	5	B	0	L1
TTP	68	0	1	B	0	L1
TTP	68	0	6	B	0	L1
THO	69	0	0	384	C	1	L1
STR	71	0	0
SI_	71	0	0	96	288	4
STR	73	0	7
SI_	73	0	7	96	288	3
STR	75	0	1
SI_	75	0	1	96	288	4
STR	77	0	6
SI_	77	0	6	96	288	3
TAP	79	0	2
TAP	79	192	2
TAP	80	0	2
TAP	80	0	3
TAP	81	0	5
TAP	81	192	5
TAP	82	0	4
TAP	82	0	5
TAP	83	0	3
TAP	83	192	3
TAP	84	0	2
TAP	84	192	2
TAP	85	0	1
TAP	85	192	1
TAP	86	0	0
TAP	86	0	7
TTP	87	0	0	B	0	L1
TTP	87	0	7	B	0	L1
TTP	88	0	1	B	0	L1
TTP	88	0	6	B	0	L1
TTP	89	0	2	B	0	L1
TTP	89	0	5	B	0	L1
TTP	90	0	3	B	0	L1
TTP	90	0	4	B	0	L1
TAP	91	0	5
TAP	91	192	5
TAP	92	0	4
TAP	92	96	4
TAP	92	192	3
TAP	92	192	4
TAP	93	0	2
TAP	93	192	2
TAP	94	0	3
TAP	94	96	3
TAP	94	192	3
TAP	94	192	4
STR	95	0	4
SI_	95	0	4	96	288	7
STR	97	0	3
SI_	97	0	3	96	288	0
THO	99	96	0	624	C	0	L1

T_REC_TAP	99
T_REC_BRK	4
T_REC_XTP	2
T_REC_HLD	7
T_REC_XHO	0
T_REC_STR	8
T_REC_BST	0
T_REC_XST	0
T_REC_TTP	26
T_REC_THO	3
T_REC_SLD	8
T_REC_ALL	157
T_NUM_TAP	135
T_NUM_BRK	4
T_NUM_HLD	10
T_NUM_SLD	8
T_NUM_ALL	157
T_JUDGE_TAP	139
T_JUDGE_HLD	74
T_JUDGE_SLD	8
T_JUDGE_ALL	221
TTM_EACHPAIRS	14
TTM_SCR_TAP	67500
TTM_SCR_BRK	10400
TTM_SCR_HLD	10000
TTM_SCR_SLD	12000
TTM_SCR_ALL	99900
TTM_SCR_S	96550
TTM_SCR_SS	99500
TTM_RAT_ACV	10040

