VERSION	0.00.00	1.03.00
FES_MODE	0
BPM_DEF	180.000	180.000	180.000	180.000
MET_DEF	4	4
RESOLUTION	384
CLK_DEF	384
COMPATIBLE_CODE	MA2

BPM	0	0	180.000
MET	0	0	4	4

STR	2	0	0
SCR	2	0	0	96	96	4
STR	2	96	4
SCR	2	96	4	96	96	0
STR	2	192	0
SCR	2	192	0	96	96	4
STR	2	288	4
SCR	2	288	4	96	96	0
STR	3	0	0
SCR	3	0	0	96	96	4
STR	3	96	4
SCR	3	96	4	96	96	0
STR	3	192	0
SCR	3	192	0	96	96	4
STR	3	288	4
SF_	3	288	4	96	96	0
STR	4	192	0
SCL	4	192	0	96	288	4
STR	4	192	7
SCR	4	192	7	96	288	3
STR	5	288	0
SCR	5	288	0	96	192	7
TTP	6	192	0	C	1	M1
STR	7	0	7
SCL	7	0	7	96	48	4
STR	7	96	7
SCR	7	96	7	96	48	2
STR	7	192	7
SI_	7	192	7	96	48	3
STR	7	288	3
SXL	7	288	3	96	192	6
STR	8	96	0
SXL	8	96	0	96	192	3
STR	8	288	7
SLL	8	288	7	96	96	3
STR	9	144	2
SCL	9	144	2	96	48	7
STR	9	240	4
SXL	9	240	4	96	144	5
SXR	9	240	4	96	144	3
STR	10	192	7
SI_	10	192	7	96	48	3
STR	11	0	2
SXL	11	0	2	96	96	2
STR	11	192	6
SXL	11	192	6	96	96	6
STR	12	0	2
SXL	12	0	2	96	96	2
STR	12	192	6
SXL	12	192	6	96	96	6
STR	12	288	6
SCL	12	288	6	96	288	7
STR	13	288	3
SUR	13	288	3	96	192	4
STR	14	288	5
SUR	14	288	5	96	96	2
STR	15	0	2
SCR	15	0	2	96	96	5
STR	15	96	5
SUR	15	96	5	96	96	2
STR	15	192	2
SCR	15	192	2	96	96	5
STR	15	288	5
SUR	15	288	5	96	192	7
STR	16	288	2
SUL	16	288	2	96	96	5
STR	17	0	5
SCL	17	0	5	96	96	2
STR	17	96	2
SUL	17	96	2	96	96	5
STR	17	192	5
SCL	17	192	5	96	96	2
STR	17	288	2
SLL	17	288	2	96	192	5
SLR	17	288	2	96	192	7
STR	19	0	5
SXL	19	0	5	96	288	3
STR	20	0	2
SCL	20	0	2	96	48	0
SV_	20	0	2	96	48	0
STR	20	192	3
SCR	20	192	3	96	48	5
SV_	20	192	3	96	48	5
STR	21	0	2
SXR	21	0	2	96	288	4
STR	22	0	5
SCR	22	0	5	96	48	7
SV_	22	0	5	96	48	7
STR	22	192	4
SCL	22	192	4	96	48	2
STR	22	288	4
SXL	22	288	4	96	288	1
STR	24	0	0
SI_	24	0	0	96	48	3
STR	24	192	7
SI_	24	192	7	96	48	4
STR	24	288	3
SI_	24	288	3	96	48	0
STR	25	0	3
SCR	25	0	3	96	288	2
STR	26	192	0
SI_	26	192	0	96	48	3
STR	26	192	7
SI_	26	192	7	96	48	4
STR	27	0	2
SXL	27	0	2	96	96	2
STR	27	192	5
SCR	27	192	5	96	48	7
STR	27	288	3
SCL	27	288	3	96	48	1
STR	28	0	3
SXL	28	0	3	96	192	6
STR	29	0	5
SXR	29	0	5	96	96	5
STR	29	192	2
SCL	29	192	2	96	48	0
STR	29	288	4
SCR	29	288	4	96	48	6
STR	30	0	4
SXR	30	0	4	96	192	1
STR	30	288	7
SCL	30	288	7	96	96	3
STR	31	192	0
SLR	31	192	0	96	96	4
STR	32	0	7
SLL	32	0	7	96	96	3
STR	32	192	1
SCR	32	192	1	96	48	4
STR	32	288	7
SI_	32	288	7	96	48	3
STR	33	0	7
SCL	33	0	7	96	192	0
STR	34	192	0
SI_	34	192	0	96	48	3
STR	34	192	7
SI_	34	192	7	96	48	4
STR	35	0	1
SXL	35	0	1	96	576	5
STR	36	0	6
SI_	36	0	6	96	48	0
STR	36	192	1
SI_	36	192	1	96	48	7
STR	37	0	6
SXR	37	0	6	96	576	2
STR	38	0	1
SI_	38	0	1	96	48	7
STR	38	192	6
SI_	38	192	6	96	48	0
STR	39	0	1
SXL	39	0	1	96	576	5
STR	40	0	6
SI_	40	0	6	96	48	0
STR	40	192	1
SI_	40	192	1	96	48	7
STR	41	0	6
SXR	41	0	6	96	576	3
STR	42	0	2
SI_	42	0	2	96	48	0
STR	42	192	0
SI_	42	192	0	96	48	2
STR	43	0	1
SXR	43	0	1	96	192	1
STR	43	192	5
SCL	43	192	5	96	48	2
STR	44	0	6
SXL	44	0	6	96	192	6
STR	44	192	2
SCR	44	192	2	96	48	5
STR	45	0	1
SXR	45	0	1	96	192	1
STR	45	192	5
SCL	45	192	5	96	48	2
STR	46	0	6
SXL	46	0	6	96	192	6
STR	46	192	2
SCR	46	192	2	96	48	5
STR	47	0	2
SXL	47	0	2	96	192	2
STR	47	192	6
SCR	47	192	6	96	48	1
STR	48	0	5
SXR	48	0	5	96	192	5
STR	48	192	1
SCL	48	192	1	96	48	6
STR	48	288	1
SXR	48	288	1	96	288	4
STR	50	0	5
SCL	50	0	5	96	96	2
STR	50	192	1
SUR	50	192	1	96	96	5
STR	50	288	5
SCR	50	288	5	96	144	4
STR	51	288	3
SI_	51	288	3	96	48	7
STR	51	288	4
SI_	51	288	4	96	48	0
STR	52	0	3
SCL	52	0	3	96	288	5
STR	52	0	4
SCR	52	0	4	96	288	2
XST	53	192	3
SI_	53	192	3	96	48	0
XST	53	192	4
SI_	53	192	4	96	48	7
STR	54	0	0
SCR	54	0	0	96	48	2
STR	54	96	0
SCL	54	96	0	96	48	6
STR	54	96	4
SV_	54	96	4	96	96	3
STR	54	192	0
SCR	54	192	0	96	48	2
STR	54	288	0
SCL	54	288	0	96	48	6
STR	55	0	0
SCR	55	0	0	96	48	2
STR	55	96	0
SCL	55	96	0	96	48	6
STR	55	96	3
SV_	55	96	3	96	96	4
STR	55	192	0
SCR	55	192	0	96	48	2
STR	55	288	0
SCL	55	288	0	96	48	6
STR	56	0	0
SCR	56	0	0	96	48	2
STR	56	96	0
SCL	56	96	0	96	48	6
STR	56	96	4
SV_	56	96	4	96	96	3
STR	56	192	0
SCR	56	192	0	96	48	2
STR	56	288	0
SCL	56	288	0	96	48	6
STR	57	0	0
SCR	57	0	0	96	48	2
STR	57	96	0
SCL	57	96	0	96	48	6
STR	57	96	3
SV_	57	96	3	96	96	4
STR	57	192	0
SCR	57	192	0	96	48	2
STR	58	0	7
SCL	58	0	7	96	48	5
STR	58	96	3
SV_	58	96	3	96	96	4
STR	58	96	7
SCR	58	96	7	96	48	1
STR	58	192	7
SCL	58	192	7	96	48	5
STR	58	288	7
SCR	58	288	7	96	48	1
STR	59	0	7
SCL	59	0	7	96	48	5
STR	59	96	4
SV_	59	96	4	96	96	3
STR	59	96	7
SCR	59	96	7	96	48	1
STR	59	192	7
SCL	59	192	7	96	48	5
STR	59	288	7
SCR	59	288	7	96	48	1
STR	60	0	7
SCL	60	0	7	96	48	5
STR	60	96	3
SV_	60	96	3	96	96	4
STR	60	96	7
SCR	60	96	7	96	48	1
STR	60	192	7
SCL	60	192	7	96	48	5
STR	60	288	7
SCR	60	288	7	96	48	1
STR	61	0	7
SCL	61	0	7	96	48	5
STR	61	96	4
SV_	61	96	4	96	96	3
STR	61	96	7
SCR	61	96	7	96	48	1
STR	61	192	7
SCL	61	192	7	96	48	5
STR	62	0	0
SCR	62	0	0	96	48	2
STR	62	96	0
SCL	62	96	0	96	48	6
STR	62	96	4
SV_	62	96	4	96	96	3
STR	62	192	0
SCR	62	192	0	96	48	2
STR	62	288	0
SCL	62	288	0	96	48	6
STR	63	0	0
SCR	63	0	0	96	48	2
STR	63	96	0
SCL	63	96	0	96	48	6
STR	63	96	3
SV_	63	96	3	96	96	4
STR	63	192	0
SCR	63	192	0	96	48	2
STR	63	288	0
SCL	63	288	0	96	48	6
STR	64	0	0
SCR	64	0	0	96	48	2
STR	64	96	4
SI_	64	96	4	96	48	7
XST	64	288	3
SI_	64	288	3	96	48	0
STR	64	336	3
SI_	64	336	3	96	48	6
XST	65	144	4
SI_	65	144	4	96	48	2
SI_	65	144	4	96	48	6
STR	65	240	4
SXL	65	240	4	96	240	7
SXR	65	240	4	96	240	1
BST	67	0	1
SCR	67	0	1	96	120	6
BST	67	48	3
SCR	67	48	3	96	120	0
BST	67	96	5
SCR	67	96	5	96	120	2
STR	68	0	5
SUR	68	0	5	96	48	1
STR	68	192	2
SUL	68	192	2	96	48	6
STR	69	0	5
SXL	69	0	5	96	288	3
STR	69	288	0
SCR	69	288	0	96	672	7
STR	71	288	0
SCR	71	288	0	96	672	7
STR	73	288	0
SCR	73	288	0	96	672	7
STR	75	288	0
SCR	75	288	0	96	288	3
XST	77	0	4
SI_	77	0	4	96	48	2
XST	77	48	4
SI_	77	48	4	96	48	6
XST	77	96	4
SI_	77	96	4	96	48	1
XST	77	144	4
SI_	77	144	4	96	48	7
XST	77	192	4
SI_	77	192	4	96	48	0
BST	78	0	7
SCL	78	0	7	96	48	5
STR	78	96	3
SV_	78	96	3	96	96	4
STR	78	96	7
SCR	78	96	7	96	48	1
STR	78	192	7
SCL	78	192	7	96	48	5
STR	78	288	7
SCR	78	288	7	96	48	1
STR	79	0	7
SCL	79	0	7	96	48	5
STR	79	96	4
SV_	79	96	4	96	96	3
STR	79	96	7
SCR	79	96	7	96	48	1
STR	79	192	7
SCL	79	192	7	96	48	5
STR	79	288	7
SCR	79	288	7	96	48	1
STR	80	0	7
SCL	80	0	7	96	48	5
STR	80	96	3
SI_	80	96	3	96	48	0
XST	80	288	4
SV_	80	288	4	96	48	7
STR	80	336	4
SV_	80	336	4	96	48	1
XST	81	144	3
SCL	81	144	3	96	48	1
SCR	81	144	3	96	48	5
STR	81	240	3
SXL	81	240	3	96	240	6
SXR	81	240	3	96	240	0
BST	83	0	6
SCL	83	0	6	96	120	1
BST	83	48	4
SCL	83	48	4	96	120	7
BST	83	96	2
SCL	83	96	2	96	120	5
STR	84	0	0
SCR	84	0	0	96	48	3
STR	84	96	0
SCL	84	96	0	96	48	5
STR	84	192	0
SI_	84	192	0	96	48	4
STR	84	288	4
SXR	84	288	4	96	192	1
STR	85	96	7
SXR	85	96	7	96	192	4
STR	85	288	0
SLR	85	288	0	96	96	4
STR	86	144	5
SCR	86	144	5	96	48	0
STR	86	240	3
SXL	86	240	3	96	144	4
SXR	86	240	3	96	144	2
STR	87	192	0
SI_	87	192	0	96	48	4
STR	88	0	5
SXR	88	0	5	96	96	5
STR	88	192	1
SXR	88	192	1	96	96	1
STR	89	0	5
SXR	89	0	5	96	96	5
STR	89	192	1
SXR	89	192	1	96	96	1
STR	89	288	1
SCR	89	288	1	96	288	0
STR	90	288	4
SUL	90	288	4	96	192	3
STR	91	288	3
SI_	91	288	3	96	48	1
SI_	91	288	3	96	48	5
STR	92	0	3
SI_	92	0	3	96	48	7
STR	92	96	3
SCL	92	96	3	96	192	4
THO	93	192	0	1632	C	0	M1

T_REC_TAP	0
T_REC_BRK	0
T_REC_XTP	0
T_REC_HLD	0
T_REC_XHO	0
T_REC_STR	187
T_REC_BST	7
T_REC_XST	11
T_REC_TTP	1
T_REC_THO	1
T_REC_SLD	216
T_REC_ALL	423
T_NUM_TAP	199
T_NUM_BRK	7
T_NUM_HLD	1
T_NUM_SLD	216
T_NUM_ALL	423
T_JUDGE_TAP	206
T_JUDGE_HLD	34
T_JUDGE_SLD	216
T_JUDGE_ALL	456
TTM_EACHPAIRS	18
TTM_SCR_TAP	99500
TTM_SCR_BRK	18200
TTM_SCR_HLD	1000
TTM_SCR_SLD	324000
TTM_SCR_ALL	442700
TTM_SCR_S	428750
TTM_SCR_SS	442000
TTM_RAT_ACV	10015

