VERSION	0.00.00	1.03.00
FES_MODE	0
BPM_DEF	180.000	180.000	180.000	180.000
MET_DEF	4	4
RESOLUTION	384
CLK_DEF	384
COMPATIBLE_CODE	MA2

BPM	0	0	180.000
MET	0	0	4	4

STR	2	0	3
SCL	2	0	3	96	96	0
TAP	2	96	6
STR	2	192	4
SCR	2	192	4	96	96	7
TAP	2	288	1
STR	3	0	3
SCL	3	0	3	96	96	0
TAP	3	96	6
STR	3	192	4
SCR	3	192	4	96	96	7
TAP	3	288	1
HLD	4	0	3	192
TAP	4	192	7
STR	4	240	7
SCL	4	240	7	96	240	1
TTP	4	336	0	C	1	M1
TAP	5	96	0
TAP	5	192	0
TAP	5	288	0
HLD	6	0	0	192
TTP	6	192	0	C	1	M1
TAP	7	0	3
TAP	7	0	6
TAP	7	48	2
TAP	7	96	1
TAP	7	96	3
STR	7	144	0
SCR	7	144	0	96	48	3
STR	7	240	5
SCR	7	240	5	96	48	0
TAP	7	336	2
TAP	8	0	2
TAP	8	96	1
HLD	8	192	0	72
HLD	8	264	1	72
TAP	8	336	2
STR	9	0	2
SI_	9	0	2	96	48	5
TAP	9	96	6
STR	9	144	6
SI_	9	144	6	96	48	1
STR	9	240	3
SCL	9	240	3	96	144	6
TAP	9	336	5
HLD	10	0	5	192
TAP	10	192	0
BRK	10	288	7
TAP	11	0	2
STR	11	0	3
SUR	11	0	3	96	48	0
TAP	11	96	1
HLD	11	144	1	96
TAP	11	240	3
TAP	11	288	3
STR	12	0	4
SUL	12	0	4	96	48	7
TAP	12	0	5
TAP	12	96	6
HLD	12	144	6	96
TAP	12	240	4
TAP	12	288	4
STR	13	0	1
SCR	13	0	1	96	96	4
STR	13	96	4
SCR	13	96	4	96	96	7
STR	13	192	7
SCR	13	192	7	96	96	2
STR	13	288	2
SUR	13	288	2	96	192	4
TTP	14	0	0	C	1	M1
TAP	14	288	3
TAP	14	288	4
HLD	15	0	5	96
TAP	15	96	4
TAP	15	192	4
TAP	15	192	6
TAP	15	240	4
TAP	15	240	6
TAP	15	336	0
TAP	15	336	7
TAP	16	48	1
TAP	16	48	3
HLD	16	144	5	96
TAP	16	240	4
TAP	16	288	4
HLD	17	0	0	96
TAP	17	96	7
TAP	17	192	3
TAP	17	192	4
HLD	17	240	3	48
HLD	17	240	4	48
BRK	18	0	1
BRK	18	0	6
BRK	18	48	1
BRK	18	48	6
BRK	18	96	1
BRK	18	96	6
BRK	18	144	1
BRK	18	144	6
TAP	18	240	3
TAP	18	264	4
TAP	18	288	3
HLD	19	0	4	96
HLD	19	0	6	576
TAP	19	144	4
TAP	19	240	4
TAP	19	336	5
TAP	20	48	3
TAP	20	144	4
TAP	20	192	4
TAP	20	288	3
TAP	20	288	4
HLD	21	0	1	576
HLD	21	0	3	96
TAP	21	144	3
TAP	21	240	3
TAP	21	336	2
TAP	22	48	4
TAP	22	144	3
TAP	22	192	3
TAP	22	264	3
TAP	22	264	5
TAP	22	336	7
STR	23	0	7
SCL	23	0	7	96	96	4
TAP	23	96	3
STR	23	192	0
SCR	23	192	0	96	96	3
TAP	23	288	4
STR	24	0	7
SCL	24	0	7	96	96	4
TAP	24	96	3
TAP	24	192	1
HLD	24	288	1	96
STR	25	0	7
SCL	25	0	7	96	144	1
XTP	25	96	0
XTP	25	144	0
TAP	26	0	2
TAP	26	48	2
TAP	26	96	3
TAP	26	144	4
HLD	26	192	5	72
HLD	26	264	4	72
TAP	26	336	3
HLD	27	0	2	96
TAP	27	96	3
STR	27	144	3
SLR	27	144	3	96	96	7
TAP	27	240	0
TAP	27	336	1
STR	28	48	2
SXL	28	48	2	96	192	5
TAP	28	144	6
TAP	28	192	6
TAP	28	288	7
HLD	29	0	7	96
TAP	29	96	0
TAP	29	144	0
STR	29	240	4
SLL	29	240	4	96	96	0
SLR	29	240	4	96	96	0
TAP	30	144	0
HLD	30	192	0	72
HLD	30	264	2	72
TAP	30	336	3
STR	31	0	3
SI_	31	0	3	96	96	0
TAP	31	96	6
STR	31	192	7
SI_	31	192	7	96	96	4
TAP	31	288	1
STR	32	0	3
SI_	32	0	3	96	96	0
TAP	32	96	5
TAP	32	144	5
TAP	32	240	7
TAP	32	336	0
TAP	33	0	0
TAP	33	96	3
TAP	33	96	4
TAP	33	144	2
TAP	33	144	5
TAP	33	240	3
TAP	33	288	4
HLD	33	336	5	96
TAP	34	48	4
TAP	34	96	3
TAP	34	144	2
TAP	34	192	5
TAP	34	288	3
STR	34	288	4
SXL	34	288	4	96	192	3
HLD	35	0	0	288
TAP	35	288	7
HLD	35	336	7	96
TAP	36	48	6
HLD	36	96	6	96
TAP	36	192	5
STR	36	288	3
SXR	36	288	3	96	192	4
TAP	36	288	4
HLD	37	0	7	288
TAP	37	288	0
HLD	37	336	0	96
TAP	38	48	1
HLD	38	96	1	96
TAP	38	192	2
TAP	38	288	3
STR	38	288	4
SXL	38	288	4	96	192	3
HLD	39	0	0	288
TAP	39	288	7
HLD	39	336	7	96
TAP	40	48	6
HLD	40	96	6	96
HLD	40	192	4	96
HLD	40	288	3	96
HLD	41	0	1	96
HLD	41	96	0	96
HLD	41	192	7	96
TAP	41	288	1
TAP	41	336	1
TAP	42	48	6
TAP	42	96	7
TAP	42	144	0
TAP	42	192	1
TAP	42	240	0
TAP	42	288	7
STR	43	0	5
SCL	43	0	5	96	96	2
TAP	43	96	1
HLD	43	192	0	96
TAP	43	288	7
HLD	43	336	7	96
TAP	44	48	5
HLD	44	96	5	96
HLD	44	192	4	96
TAP	44	288	3
STR	45	0	2
SCR	45	0	2	96	96	5
TAP	45	96	6
HLD	45	192	7	96
TAP	45	288	0
HLD	45	336	0	96
TAP	46	48	2
HLD	46	96	2	96
HLD	46	192	3	96
TAP	46	288	4
STR	47	0	5
SCL	47	0	5	96	96	2
TAP	47	96	1
TAP	47	192	0
STR	47	240	0
SV_	47	240	0	96	48	3
SV_	47	240	0	96	48	5
XTP	47	336	0
TAP	48	48	2
TAP	48	48	6
TAP	48	96	2
HLD	48	96	6	96
HLD	48	192	4	96
HLD	48	288	3	96
STR	49	0	1
SXR	49	0	1	96	288	4
TAP	49	96	5
HLD	49	144	5	240
TAP	50	144	0
TAP	50	144	7
TAP	50	192	1
TAP	50	192	6
TAP	50	240	2
TAP	50	240	5
STR	50	288	3
SI_	50	288	3	96	48	0
TAP	50	288	4
HLD	51	0	7	288
TAP	51	192	0
TAP	51	240	1
TAP	51	288	2
THO	52	0	0	144	C	1	M1
TTP	52	144	0	E	0	M1
TAP	53	0	1
TAP	53	0	7
TAP	53	48	6
TAP	53	72	7
TAP	53	120	1
TAP	53	144	0
TAP	53	192	3
TAP	53	216	4
TAP	53	240	3
BRK	53	288	2
BRK	53	288	6
STR	54	0	1
SUR	54	0	1	96	48	5
TAP	54	96	7
HLD	54	144	7	96
STR	54	240	0
SSL	54	240	0	96	96	4
STR	54	336	4
SCL	54	336	4	96	96	0
TAP	55	48	5
TAP	55	96	5
XTP	55	192	7
XST	55	240	7
SCL	55	240	7	96	144	0
TTP	55	336	0	C	1	M1
TAP	56	240	1
TAP	56	240	5
TAP	56	288	2
TAP	56	288	6
TAP	56	336	3
TAP	56	336	7
TAP	57	0	0
STR	57	0	4
SCL	57	0	4	96	48	0
TAP	57	96	6
TAP	57	144	6
XTP	57	240	0
XTP	57	240	4
XTP	57	288	0
XTP	57	288	4
TAP	58	0	2
TAP	58	0	5
TAP	58	48	3
TAP	58	96	4
HLD	58	144	0	96
TAP	58	240	7
TAP	58	288	6
TAP	58	336	2
STR	58	336	5
SCL	58	336	5	96	48	2
STR	59	48	1
SUR	59	48	1	96	48	5
STR	59	144	6
SCR	59	144	6	96	48	1
STR	59	240	2
SCL	59	240	2	96	144	4
TTP	59	336	0	C	1	M1
TAP	60	192	7
HLD	60	240	7	96
TAP	60	336	3
TAP	61	48	1
TAP	61	48	4
TAP	61	96	2
TAP	61	144	5
TAP	61	192	3
TAP	61	192	6
TAP	61	288	0
TAP	61	288	7
STR	62	0	6
SUL	62	0	6	96	48	2
TAP	62	96	0
HLD	62	144	0	96
STR	62	240	7
SLL	62	240	7	96	96	3
STR	62	336	3
SXL	62	336	3	96	96	3
TAP	63	48	1
TAP	63	96	1
XTP	63	192	0
XST	63	240	0
SCR	63	240	0	96	144	7
TTP	63	336	0	C	1	M1
TAP	64	288	0
TAP	64	288	7
STR	64	336	0
SI_	64	336	0	96	48	6
TAP	64	336	7
TAP	65	48	0
STR	65	48	5
SI_	65	48	5	96	48	1
STR	65	144	2
SI_	65	144	2	96	48	4
TAP	65	144	5
TAP	65	240	2
STR	65	240	7
SCL	65	240	7	96	144	1
TAP	65	336	1
TAP	65	336	7
TAP	66	48	0
TAP	66	96	0
TAP	66	192	1
TAP	66	192	4
TAP	66	288	3
TAP	66	288	6
TTP	67	0	4	B	0	M1
TTP	67	0	5	B	0	M1
TTP	67	48	2	B	0	M1
TTP	67	48	3	B	0	M1
TTP	67	96	0	C	0	M1
BRK	67	288	0
BRK	67	288	7
STR	68	0	2
SI_	68	0	2	96	48	6
TAP	68	96	7
TAP	68	144	7
STR	68	240	5
SI_	68	240	5	96	48	1
HLD	68	336	0	96
BRK	69	48	7
STR	69	288	0
SCR	69	288	0	96	576	7
TAP	70	0	7
TTP	71	0	0	C	0	M1
TTP	71	192	3	B	0	M1
TTP	71	192	4	B	0	M1
STR	72	0	7
SCL	72	0	7	96	480	0
TTP	73	0	0	C	0	M1
TTP	73	192	3	B	0	M1
TTP	73	192	4	B	0	M1
STR	74	0	0
SCR	74	0	0	96	480	7
TTP	75	0	0	C	0	M1
TTP	75	192	3	B	0	M1
TTP	75	192	4	B	0	M1
TAP	76	0	7
HLD	76	192	5	72
TAP	76	264	4
TAP	76	288	5
TAP	77	0	3
TAP	77	0	6
TAP	77	48	2
TAP	77	96	0
TAP	77	96	1
TAP	77	144	7
TAP	77	192	4
TAP	77	192	6
TAP	77	240	3
TAP	77	288	4
TAP	77	336	2
STR	78	0	1
SUR	78	0	1	96	48	5
TAP	78	96	7
HLD	78	144	7	96
STR	78	240	0
SLR	78	240	0	96	96	4
STR	78	336	4
SXR	78	336	4	96	96	4
TAP	79	48	6
TAP	79	96	6
XTP	79	192	7
XST	79	240	7
SCL	79	240	7	96	144	0
TTP	79	336	0	C	1	M1
TAP	80	288	0
TAP	80	288	7
TAP	80	336	0
STR	80	336	7
SI_	80	336	7	96	48	1
STR	81	48	2
SI_	81	48	2	96	48	6
TAP	81	48	7
TAP	81	144	2
STR	81	144	5
SI_	81	144	5	96	48	3
STR	81	240	0
SCR	81	240	0	96	144	6
TAP	81	240	5
TAP	81	336	0
TAP	81	336	6
TAP	82	48	7
TAP	82	96	7
TAP	82	192	3
TAP	82	192	6
TAP	82	288	1
TAP	82	288	4
TTP	83	0	2	B	0	M1
TTP	83	0	3	B	0	M1
TTP	83	48	4	B	0	M1
TTP	83	48	5	B	0	M1
TTP	83	96	0	C	0	M1
BRK	83	288	0
BRK	83	288	7
STR	84	0	5
SCL	84	0	5	96	48	2
TAP	84	96	1
HLD	84	144	1	96
STR	84	240	3
SI_	84	240	3	96	48	7
TAP	84	336	0
STR	85	0	0
SI_	85	0	0	96	48	4
TAP	85	96	0
TAP	85	96	5
HLD	85	192	5	72
HLD	85	264	6	72
TAP	85	336	7
HLD	86	0	0	96
TAP	86	96	4
TAP	86	144	4
TAP	86	240	2
TAP	86	240	6
TAP	86	336	5
TAP	86	360	4
HLD	87	0	6	96
TAP	87	96	2
TAP	87	144	2
TAP	87	168	3
HLD	87	192	1	96
BRK	87	288	7
STR	88	0	5
SI_	88	0	5	96	48	3
TAP	88	96	0
TAP	88	96	5
STR	88	192	2
SI_	88	192	2	96	48	4
TAP	88	288	2
TAP	88	288	7
STR	89	0	5
SI_	89	0	5	96	48	3
TAP	89	96	0
TAP	89	96	5
TAP	89	192	2
TAP	89	240	2
TAP	89	288	1
TAP	89	288	5
XST	90	0	0
SI_	90	0	0	96	48	3
XST	90	0	4
SI_	90	0	4	96	48	7
XTP	90	96	0
XTP	90	96	4
XST	90	192	3
SI_	90	192	3	96	48	0
XST	90	192	7
SI_	90	192	7	96	48	4
XTP	90	288	3
XTP	90	288	7
XST	91	0	0
SCR	91	0	0	96	48	3
XST	91	0	4
SCR	91	0	4	96	48	7
XTP	91	96	0
XTP	91	96	4
XST	91	192	3
SCL	91	192	3	96	48	0
XST	91	192	7
SCL	91	192	7	96	48	4
XTP	91	288	3
XTP	91	288	7
XTP	92	0	0
XTP	92	0	4
TAP	92	48	1
TAP	92	96	2
TAP	92	96	6
TAP	92	144	5
TAP	92	192	3
TAP	92	216	4
TAP	92	240	3
TAP	92	264	4
TAP	92	288	2
TAP	92	312	5
TAP	92	336	3
TAP	92	360	4
TAP	93	144	5
TAP	93	160	4
TAP	93	176	3
HLD	93	192	2	288
HLD	94	96	4	144
HLD	94	240	3	96
HLD	94	336	5	1104
HLD	95	96	2	960

T_REC_TAP	271
T_REC_BRK	17
T_REC_XTP	20
T_REC_HLD	69
T_REC_XHO	0
T_REC_STR	68
T_REC_BST	0
T_REC_XST	11
T_REC_TTP	27
T_REC_THO	1
T_REC_SLD	81
T_REC_ALL	565
T_NUM_TAP	397
T_NUM_BRK	17
T_NUM_HLD	70
T_NUM_SLD	81
T_NUM_ALL	565
T_JUDGE_TAP	414
T_JUDGE_HLD	228
T_JUDGE_SLD	81
T_JUDGE_ALL	723
TTM_EACHPAIRS	80
TTM_SCR_TAP	198500
TTM_SCR_BRK	44200
TTM_SCR_HLD	70000
TTM_SCR_SLD	121500
TTM_SCR_ALL	434200
TTM_SCR_S	419550
TTM_SCR_SS	432500
TTM_RAT_ACV	10039

