VERSION	0.00.00	1.03.00
FES_MODE	0
BPM_DEF	180.000	180.000	180.000	180.000
MET_DEF	4	4
RESOLUTION	384
CLK_DEF	384
COMPATIBLE_CODE	MA2

BPM	0	0	180.000
MET	0	0	4	4

HLD	2	0	2	96
TAP	2	96	3
TAP	2	192	4
TAP	2	240	4
TAP	2	288	3
TAP	2	288	5
HLD	3	0	5	96
TAP	3	96	4
TAP	3	192	3
TAP	3	240	3
TAP	3	288	2
TAP	3	288	4
HLD	4	0	2	96
TAP	4	96	3
TAP	4	192	4
TAP	4	240	3
STR	4	336	3
SXR	4	336	3	96	336	2
STR	4	336	4
SXL	4	336	4	96	336	5
BRK	6	192	1
BRK	6	192	6
HLD	7	0	1	96
TAP	7	96	0
TAP	7	144	0
TAP	7	240	1
TAP	7	240	7
TAP	7	336	2
TAP	7	336	6
TAP	8	48	3
TAP	8	48	5
TAP	8	144	4
HLD	8	192	4	96
TAP	8	288	3
STR	9	0	2
SCR	9	0	2	96	96	5
XTP	9	288	6
STR	10	0	5
SCL	10	0	5	96	96	2
XTP	10	288	1
TTP	11	0	0	E	0	M1
TTP	11	0	1	E	0	M1
TTP	11	96	2	B	0	M1
TTP	11	96	6	B	0	M1
TTP	11	192	4	E	0	M1
TTP	11	192	5	E	0	M1
TTP	11	288	0	C	0	M1
TTP	12	0	0	E	0	M1
TTP	12	0	7	E	0	M1
TTP	12	96	1	B	0	M1
TTP	12	96	5	B	0	M1
TTP	12	192	3	E	0	M1
TTP	12	192	4	E	0	M1
TTP	12	288	0	C	0	M1
STR	13	0	0
SCR	13	0	0	96	192	3
STR	14	0	4
SCR	14	0	4	96	192	7
TAP	15	0	3
TAP	15	96	2
TAP	15	96	4
TAP	15	192	4
TAP	15	240	4
TAP	15	336	3
TAP	15	336	5
TAP	16	48	2
TAP	16	48	4
TAP	16	144	3
TAP	16	192	3
TAP	16	288	2
TAP	16	288	4
TAP	17	0	4
TAP	17	96	3
TAP	17	96	5
TAP	17	192	3
TAP	17	240	3
XTP	18	0	3
XTP	18	0	4
XTP	18	48	3
XTP	18	48	4
XTP	18	96	3
XTP	18	96	4
XTP	18	144	3
XTP	18	144	4
TAP	18	240	3
BRK	18	288	4
HLD	19	0	3	96
HLD	19	0	5	576
HLD	19	192	4	96
HLD	20	0	3	96
TAP	20	192	4
TAP	20	288	3
TAP	20	288	6
HLD	21	0	2	576
HLD	21	0	4	96
HLD	21	192	3	96
HLD	22	0	4	96
TAP	22	192	3
TAP	22	288	1
TAP	22	288	4
STR	23	0	2
SUR	23	0	2	96	192	4
STR	24	0	6
SXL	24	0	6	96	192	3
STR	25	0	0
SXL	25	0	0	96	288	3
STR	25	0	4
SXL	25	0	4	96	288	7
TAP	26	192	0
TAP	26	240	7
TAP	26	288	0
HLD	27	0	0	96
HLD	27	0	1	576
HLD	27	192	2	96
HLD	28	0	0	96
TAP	28	192	0
TAP	28	288	2
TAP	28	288	7
HLD	29	0	6	576
HLD	29	0	7	96
HLD	29	192	5	96
HLD	30	0	7	96
TAP	30	192	7
TAP	30	288	0
TAP	30	288	5
STR	31	0	6
SUR	31	0	6	96	192	0
STR	32	0	2
SXL	32	0	2	96	192	7
STR	33	0	0
SXL	33	0	0	96	288	3
STR	33	0	4
SXL	33	0	4	96	288	7
TAP	34	192	7
TAP	34	288	0
TAP	34	288	6
HLD	35	0	4	96
TAP	35	96	3
TAP	35	192	4
TAP	35	240	4
TAP	35	336	3
HLD	36	0	3	96
TAP	36	96	4
TAP	36	192	3
TAP	36	240	3
TAP	36	336	5
HLD	37	0	5	96
TAP	37	96	3
TAP	37	192	4
TAP	37	240	4
TAP	37	336	2
HLD	38	0	2	96
TAP	38	96	4
TAP	38	192	3
TAP	38	240	3
TAP	38	336	5
STR	39	0	5
SCL	39	0	5	96	96	2
TAP	39	288	0
STR	40	0	1
SCR	40	0	1	96	96	4
TAP	40	288	0
TAP	40	288	7
STR	41	0	0
SXL	41	0	0	96	288	3
STR	41	0	7
SXR	41	0	7	96	288	4
TAP	42	192	3
TAP	42	288	2
TAP	42	288	4
HLD	43	0	2	96
TAP	43	96	4
TAP	43	192	3
TAP	43	240	3
TAP	43	336	5
HLD	44	0	5	96
TAP	44	96	3
TAP	44	192	4
TAP	44	240	4
TAP	44	336	1
HLD	45	0	1	96
TAP	45	96	3
TAP	45	192	2
TAP	45	240	2
TAP	45	336	6
HLD	46	0	6	96
TAP	46	96	4
TAP	46	192	5
TAP	46	240	5
TAP	46	336	3
HLD	47	0	3	192
HLD	47	0	4	192
XTP	47	240	3
XTP	47	240	4
XHO	47	336	2	144
HLD	48	96	3	96
HLD	48	192	4	96
TAP	48	288	5
HLD	49	0	6	96
HLD	49	96	4	96
HLD	49	192	3	96
TAP	49	288	1
HLD	50	0	0	96
HLD	50	96	2	96
HLD	50	192	4	96
STR	50	288	6
SCL	50	288	6	96	288	7
THO	52	0	0	144	C	1	M1
TTP	52	0	1	B	0	M1
TTP	52	0	2	B	0	M1
TTP	52	0	5	B	0	M1
TTP	52	0	6	B	0	M1
TAP	53	192	3
TAP	53	240	4
XTP	53	288	2
XTP	53	288	5
HLD	54	0	1	96
TAP	54	96	0
TAP	54	144	0
TAP	54	144	1
TAP	54	240	2
TAP	54	240	3
TAP	54	336	4
TAP	54	336	5
TAP	55	48	6
HLD	55	96	6	96
TAP	55	192	0
TAP	55	240	0
STR	55	336	1
SXR	55	336	1	96	192	4
HLD	55	336	7	240
HLD	57	0	5	96
TAP	57	96	3
TAP	57	144	3
TAP	57	240	2
TAP	57	240	4
TAP	58	0	3
TAP	58	48	4
HLD	58	144	4	96
HLD	58	144	6	96
HLD	58	336	1	96
HLD	58	336	3	96
HLD	59	144	3	96
HLD	59	144	7	96
TTP	59	336	0	B	0	M1
THO	59	336	0	384	C	1	M1
TTP	59	336	1	B	0	M1
TTP	59	336	4	B	0	M1
TTP	59	336	5	B	0	M1
TAP	61	192	4
TAP	61	240	3
XTP	61	288	2
XTP	61	288	5
HLD	62	0	6	96
TAP	62	96	7
TAP	62	144	6
TAP	62	144	7
TAP	62	240	4
TAP	62	240	5
TAP	62	336	2
TAP	62	336	3
TAP	63	48	1
HLD	63	96	1	96
TAP	63	192	7
TAP	63	240	7
HLD	63	336	0	240
STR	63	336	6
SXL	63	336	6	96	192	3
TAP	64	288	0
XTP	64	336	0
XTP	64	336	7
XTP	65	48	3
XTP	65	48	6
XTP	65	144	1
XTP	65	144	4
XTP	65	240	3
XTP	65	240	5
XST	65	336	2
SUR	65	336	2	96	240	5
XHO	65	336	4	336
TAP	67	0	3
TAP	67	0	4
TAP	67	48	3
TAP	67	48	4
BRK	67	96	3
BRK	67	96	4
HLD	68	0	3	96
TAP	68	96	5
TAP	68	144	4
TAP	68	240	4
TAP	68	240	6
TAP	68	336	4
HLD	68	336	5	96
TAP	69	48	1
HLD	69	144	2	96
TAP	69	144	3
TAP	69	240	6
TAP	69	336	0
STR	70	0	0
SI_	70	0	0	96	480	3
STR	72	0	7
SI_	72	0	7	96	480	4
TTP	74	0	1	E	0	M1
TTP	74	0	1	B	0	M1
TTP	74	192	6	B	0	M1
TTP	74	192	7	E	0	M1
TTP	75	0	2	E	0	M1
TTP	75	0	2	B	0	M1
TTP	75	192	5	B	0	M1
TTP	75	192	6	E	0	M1
TTP	76	0	3	B	0	M1
TTP	76	96	4	B	0	M1
TTP	76	192	1	B	0	M1
TTP	76	288	6	B	0	M1
THO	77	0	0	192	C	1	M1
HLD	78	0	6	96
TAP	78	96	7
TAP	78	144	6
TAP	78	144	7
TAP	78	240	4
TAP	78	240	5
TAP	78	336	2
TAP	78	336	3
TAP	79	48	1
HLD	79	96	1	96
TAP	79	192	7
TAP	79	240	7
HLD	79	336	0	240
STR	79	336	6
SXL	79	336	6	96	192	3
TAP	80	288	0
XTP	80	336	0
XTP	80	336	7
XTP	81	48	3
XTP	81	48	6
XTP	81	144	1
XTP	81	144	5
XTP	81	240	2
XTP	81	240	7
XHO	81	336	0	336
XST	81	336	6
SUR	81	336	6	96	240	1
TAP	83	0	0
TAP	83	0	7
TAP	83	48	0
TAP	83	48	7
BRK	83	96	0
BRK	83	96	7
HLD	84	0	0	96
TAP	84	96	1
TAP	84	144	1
TAP	84	240	2
TAP	84	240	3
TAP	84	336	4
TAP	85	0	3
TAP	85	96	4
TAP	85	96	6
TAP	85	192	7
TAP	85	240	7
TAP	85	336	0
STR	86	0	0
SUR	86	0	0	96	144	6
TAP	86	336	5
STR	87	0	5
SCL	87	0	5	96	144	1
HLD	88	0	2	96
TAP	88	96	3
TAP	88	144	1
TAP	88	240	0
TAP	88	240	1
TAP	88	336	6
TAP	88	336	7
TAP	89	48	0
TAP	89	48	5
TAP	89	144	0
TAP	89	144	1
TAP	89	240	2
TAP	89	240	7
TAP	89	336	3
TAP	89	336	6
TAP	90	0	3
STR	90	0	6
SCR	90	0	6	96	192	4
STR	91	0	1
SCL	91	0	1	96	192	3
TAP	91	0	5
TAP	92	0	1
STR	92	0	7
SUR	92	0	7	96	240	0
TTP	93	192	0	B	0	M1
THO	93	192	0	1536	C	0	M1
TTP	93	192	3	B	0	M1
TTP	93	192	4	B	0	M1
TTP	93	192	7	B	0	M1

T_REC_TAP	188
T_REC_BRK	7
T_REC_XTP	32
T_REC_HLD	60
T_REC_XHO	3
T_REC_STR	29
T_REC_BST	0
T_REC_XST	2
T_REC_TTP	38
T_REC_THO	4
T_REC_SLD	31
T_REC_ALL	394
T_NUM_TAP	289
T_NUM_BRK	7
T_NUM_HLD	67
T_NUM_SLD	31
T_NUM_ALL	394
T_JUDGE_TAP	296
T_JUDGE_HLD	237
T_JUDGE_SLD	31
T_JUDGE_ALL	564
TTM_EACHPAIRS	80
TTM_SCR_TAP	144500
TTM_SCR_BRK	18200
TTM_SCR_HLD	67000
TTM_SCR_SLD	46500
TTM_SCR_ALL	276200
TTM_SCR_S	267250
TTM_SCR_SS	275500
TTM_RAT_ACV	10025

