VERSION	0.00.00	1.03.00
FES_MODE	0
BPM_DEF	180.000	180.000	180.000	180.000
MET_DEF	4	4
RESOLUTION	384
CLK_DEF	384
COMPATIBLE_CODE	MA2

BPM	0	0	180.000
MET	0	0	4	4

HLD	2	0	2	192
TAP	2	192	3
HLD	3	0	5	192
TAP	3	192	4
HLD	4	0	3	192
HLD	4	0	4	192
THO	5	0	0	384	C	1	L1
TAP	7	0	2
TAP	7	96	2
TAP	7	192	2
TAP	8	0	4
TAP	8	96	4
TAP	8	192	4
TAP	9	0	3
TAP	9	96	3
TAP	9	192	3
TAP	10	0	3
TAP	10	0	4
TAP	10	192	2
TAP	10	192	5
TAP	11	0	6
TAP	11	96	6
TAP	11	192	6
TAP	12	0	0
TAP	12	96	0
TAP	12	192	0
HLD	13	0	0	192
HLD	13	0	7	192
TAP	14	0	1
TAP	14	0	6
TAP	14	96	1
TAP	14	96	6
XTP	14	192	1
XTP	14	192	6
HLD	15	0	2	192
HLD	15	0	3	192
HLD	16	0	4	192
HLD	16	0	5	192
HLD	17	0	3	192
HLD	17	0	4	192
XTP	18	0	3
XTP	18	0	4
XTP	18	96	2
XTP	18	96	5
BRK	18	144	2
BRK	18	144	5
HLD	19	0	2	192
TAP	19	192	3
TAP	19	288	3
TAP	20	0	3
TAP	20	192	2
TAP	20	192	4
HLD	21	0	5	192
TAP	21	192	4
TAP	21	288	4
TAP	22	0	4
TAP	22	192	3
TAP	22	192	5
TAP	23	0	6
TAP	23	96	6
TAP	23	192	6
TAP	23	192	7
TAP	24	0	1
TAP	24	96	1
TAP	24	192	0
TAP	24	192	1
STR	25	0	7
SCL	25	0	7	96	288	4
XTP	26	192	2
XTP	26	192	3
HLD	27	0	1	192
TAP	27	192	0
TAP	27	288	0
TAP	28	0	0
TAP	28	192	1
TAP	28	192	7
HLD	29	0	6	192
TAP	29	192	7
TAP	29	288	7
TAP	30	0	7
TAP	30	192	0
TAP	30	192	6
TAP	31	0	5
TAP	31	96	5
TAP	31	192	4
TAP	31	192	5
TAP	32	0	2
TAP	32	96	2
TAP	32	192	2
TAP	32	192	3
STR	33	0	3
SI_	33	0	3	96	288	0
STR	33	0	4
SI_	33	0	4	96	288	7
XTP	34	192	1
XTP	34	192	6
TTP	35	0	2	B	0	L1
TTP	35	192	3	B	0	L1
TTP	36	0	4	B	0	L1
TTP	36	192	5	B	0	L1
THO	37	0	0	384	C	0	L1
TTP	39	0	1	B	0	L1
TTP	39	192	0	B	0	L1
TTP	40	0	7	B	0	L1
TTP	40	192	6	B	0	L1
THO	41	0	0	384	C	0	L1
TTP	43	0	6	E	0	L1
TTP	43	192	6	B	0	L1
TTP	44	0	7	B	0	L1
TTP	44	192	0	B	0	L1
TTP	45	0	1	B	0	L1
TTP	45	192	2	E	0	L1
TTP	46	0	0	C	0	L1
TTP	47	0	6	E	0	L1
TTP	47	192	5	E	0	L1
TTP	48	0	4	E	0	L1
TTP	48	192	3	E	0	L1
TTP	49	0	1	B	0	L1
TTP	49	0	2	E	0	L1
TTP	50	0	5	B	0	L1
TTP	50	0	6	E	0	L1
THO	51	0	0	528	C	1	L1
XTP	53	192	0
XTP	53	192	7
XTP	54	0	1
TAP	54	96	1
TAP	54	192	2
TAP	54	288	3
TAP	55	0	4
TAP	55	96	5
TAP	55	192	3
TAP	55	192	6
TAP	56	0	6
TAP	56	96	6
TAP	56	192	5
TAP	56	288	4
TAP	57	0	3
TAP	57	96	2
TAP	57	192	1
TAP	57	192	4
TAP	58	0	1
TAP	58	96	1
TAP	58	192	1
TAP	58	192	7
TAP	59	0	6
TAP	59	96	6
TAP	59	192	0
TAP	59	192	6
TAP	60	0	7
TAP	60	96	6
TAP	60	192	5
TAP	60	288	4
TAP	61	0	2
TAP	61	0	3
TAP	61	96	2
TAP	61	96	3
XTP	61	192	1
XTP	61	192	4
TAP	62	0	2
TAP	62	96	2
TAP	62	192	1
TAP	62	288	0
TAP	63	0	7
TAP	63	96	6
TAP	63	192	0
TAP	63	192	5
TAP	64	0	5
TAP	64	96	5
TAP	64	192	6
TAP	64	288	7
TAP	65	0	0
TAP	65	96	1
XTP	65	192	2
XTP	65	192	7
STR	66	0	0
SI_	66	0	0	96	288	3
SI_	66	0	0	96	288	5
XTP	67	192	4
HLD	68	0	3	192
HLD	68	192	4	192
TAP	69	0	3
TAP	69	96	3
TAP	69	96	4
XTP	69	192	2
XTP	69	192	5
STR	70	0	1
SCR	70	0	1	96	288	4
TAP	71	192	5
STR	72	0	5
SCR	72	0	5	96	288	0
TAP	73	192	1
STR	74	0	2
SI_	74	0	2	96	288	7
STR	74	0	3
SI_	74	0	3	96	288	6
XTP	75	192	5
STR	76	0	3
SCL	76	0	3	96	288	0
STR	76	0	4
SCR	76	0	4	96	288	7
XTP	77	192	1
XTP	77	192	6
TAP	78	0	2
TAP	78	96	1
TAP	78	96	3
TAP	78	192	5
TAP	78	288	4
TAP	78	288	6
TAP	79	0	2
TAP	79	0	3
TAP	79	96	1
TAP	79	96	4
TAP	79	192	0
TAP	79	192	5
TAP	80	0	6
TAP	80	96	5
TAP	80	96	7
TAP	80	192	1
TAP	80	288	0
TAP	80	288	2
XTP	81	0	6
XTP	81	0	7
XTP	81	96	0
XTP	81	96	5
XTP	81	192	1
XTP	81	192	4
STR	82	0	3
SI_	82	0	3	96	288	0
SI_	82	0	3	96	288	6
XTP	83	192	7
TAP	84	0	0
TAP	84	96	1
TAP	84	192	2
TAP	84	288	2
TAP	84	288	3
TAP	85	0	4
TAP	85	0	5
TAP	85	96	4
TAP	85	96	5
TAP	85	192	3
TAP	85	192	6
TAP	86	0	7
TAP	86	96	6
TAP	86	192	5
TAP	86	288	4
TAP	86	288	5
TAP	87	0	2
TAP	87	0	3
TAP	87	96	2
TAP	87	96	3
TAP	87	192	1
TAP	87	192	4
HLD	88	0	1	96
TAP	88	96	0
TAP	88	192	2
TAP	88	192	7
HLD	89	0	6	96
TAP	89	96	7
TAP	89	192	0
TAP	89	192	5
TAP	90	0	7
TAP	90	96	6
TAP	90	192	5
TAP	90	288	4
TAP	90	288	5
TAP	91	0	3
TAP	91	96	2
TAP	91	192	1
TAP	91	288	0
TAP	91	288	1
HLD	92	0	0	96
HLD	92	0	7	96
TAP	92	192	1
TAP	92	192	6
THO	93	0	0	192	C	1	L1

T_REC_TAP	169
T_REC_BRK	2
T_REC_XTP	30
T_REC_HLD	22
T_REC_XHO	0
T_REC_STR	11
T_REC_BST	0
T_REC_XST	0
T_REC_TTP	23
T_REC_THO	5
T_REC_SLD	13
T_REC_ALL	275
T_NUM_TAP	233
T_NUM_BRK	2
T_NUM_HLD	27
T_NUM_SLD	13
T_NUM_ALL	275
T_JUDGE_TAP	235
T_JUDGE_HLD	119
T_JUDGE_SLD	13
T_JUDGE_ALL	367
TTM_EACHPAIRS	63
TTM_SCR_TAP	116500
TTM_SCR_BRK	5200
TTM_SCR_HLD	27000
TTM_SCR_SLD	19500
TTM_SCR_ALL	168200
TTM_SCR_S	163000
TTM_SCR_SS	168000
TTM_RAT_ACV	10011

