VERSION	0.00.00	1.03.00
FES_MODE	0
BPM_DEF	180.000	180.000	180.000	180.000
MET_DEF	4	4
RESOLUTION	384
CLK_DEF	384
COMPATIBLE_CODE	MA2

BPM	0	0	180.000
MET	0	0	4	4

TAP	7	0	0
TAP	8	0	0
TAP	9	0	1
TAP	10	0	1
TAP	11	0	2
TAP	12	0	2
HLD	13	0	3	384
TAP	15	0	4
XTP	16	0	3
XTP	16	0	4
TAP	17	0	3
BRK	18	0	3
BRK	18	0	4
HLD	19	0	4	384
TAP	20	192	4
HLD	21	0	5	384
TAP	22	192	5
TAP	23	0	6
TAP	23	192	6
TAP	24	0	7
TAP	24	192	7
STR	25	0	0
SI_	25	0	0	96	288	4
TAP	27	0	3
TAP	27	192	3
TAP	28	0	2
TAP	28	192	2
TAP	29	0	1
TAP	29	192	1
TAP	30	0	0
TAP	30	192	0
HLD	31	0	7	192
HLD	32	0	0	192
STR	33	0	7
SI_	33	0	7	96	288	3
TTP	35	0	2	B	0	L1
TTP	36	0	1	B	0	L1
TTP	37	0	0	B	0	L1
TTP	38	0	7	B	0	L1
TTP	39	0	6	B	0	L1
TTP	40	0	5	B	0	L1
TTP	41	0	4	B	0	L1
TTP	42	0	3	B	0	L1
TTP	43	0	2	B	0	L1
TTP	43	0	4	E	0	L1
TTP	44	0	4	B	0	L1
TTP	45	0	4	E	0	L1
TTP	45	0	5	B	0	L1
TTP	46	0	3	E	0	L1
TTP	47	0	2	E	0	L1
TTP	47	0	4	E	0	L1
TTP	48	0	5	E	0	L1
TTP	49	0	4	E	0	L1
TTP	49	0	6	E	0	L1
TTP	50	0	3	B	0	L1
TTP	50	0	4	B	0	L1
THO	51	0	0	384	C	1	L1
TAP	54	0	7
TAP	54	192	7
TAP	55	0	6
TAP	55	192	6
HLD	56	0	5	192
TAP	57	0	4
TAP	57	0	5
TAP	58	0	3
TAP	58	192	3
TAP	59	0	2
TAP	59	192	2
HLD	60	0	0	384
HLD	60	0	1	384
TAP	62	0	0
TAP	62	192	0
TAP	63	0	1
TAP	63	192	1
HLD	64	0	2	192
TAP	65	0	2
TAP	65	0	3
TAP	66	0	4
TAP	66	192	4
BRK	67	0	3
BRK	67	0	4
HLD	68	0	2	192
HLD	68	0	4	192
HLD	69	0	3	192
HLD	69	0	5	192
STR	70	0	3
SI_	70	0	3	96	288	0
STR	72	0	4
SI_	72	0	4	96	288	7
TAP	74	0	3
TAP	75	0	3
TAP	76	0	4
TAP	77	0	3
TAP	77	0	4
TAP	78	0	4
TAP	78	192	4
TAP	79	0	5
TAP	79	192	5
HLD	80	0	6	192
TAP	81	0	6
TAP	81	0	7
TAP	82	0	0
TAP	82	192	0
BRK	83	0	0
BRK	83	0	7
TAP	84	0	6
TAP	84	192	6
TAP	85	0	5
TAP	85	192	5
HLD	86	0	4	192
HLD	87	0	3	192
TAP	88	0	2
TAP	88	192	2
TAP	89	0	1
TAP	89	192	1
HLD	90	0	0	192
TAP	91	0	0
TAP	91	192	0
TAP	91	192	7
HLD	92	0	0	384
HLD	92	0	7	384
XHO	93	192	1	1536
XHO	93	192	6	1536

T_REC_TAP	64
T_REC_BRK	6
T_REC_XTP	2
T_REC_HLD	19
T_REC_XHO	2
T_REC_STR	4
T_REC_BST	0
T_REC_XST	0
T_REC_TTP	21
T_REC_THO	1
T_REC_SLD	4
T_REC_ALL	123
T_NUM_TAP	91
T_NUM_BRK	6
T_NUM_HLD	22
T_NUM_SLD	4
T_NUM_ALL	123
T_JUDGE_TAP	97
T_JUDGE_HLD	176
T_JUDGE_SLD	4
T_JUDGE_ALL	277
TTM_EACHPAIRS	14
TTM_SCR_TAP	45500
TTM_SCR_BRK	15600
TTM_SCR_HLD	22000
TTM_SCR_SLD	6000
TTM_SCR_ALL	89100
TTM_SCR_S	85850
TTM_SCR_SS	88500
TTM_RAT_ACV	10067

