VERSION	0.00.00	1.03.00
FES_MODE	0
BPM_DEF	172.000	172.000	172.000	172.000
MET_DEF	4	4
RESOLUTION	384
CLK_DEF	384
COMPATIBLE_CODE	MA2

BPM	0	0	172.000
MET	0	0	4	4
MET	57	0	4	3
MET	63	288	4	2
MET	64	96	4	3
MET	65	288	4	4
MET	66	288	4	3
MET	67	192	4	4

TAP	2	0	3
STR	2	0	4
SCR	2	0	4	96	120	7
TTP	2	192	0	C	0	M1
STR	3	0	3
SCL	3	0	3	96	120	0
TAP	3	0	4
TTP	3	192	0	C	0	M1
TTP	3	336	1	E	0	M1
TTP	3	336	7	E	0	M1
TTP	4	144	3	E	0	M1
TTP	4	144	5	E	0	M1
THO	4	336	0	240	C	0	M1
TTP	4	336	2	E	0	M1
TTP	4	336	6	E	0	M1
XTP	5	336	0
XTP	5	336	7
TAP	6	48	6
STR	6	96	6
SCL	6	96	6	96	72	3
TAP	6	144	7
XTP	6	192	6
TAP	6	336	1
TAP	6	336	7
TAP	7	48	1
STR	7	96	1
SCR	7	96	1	96	72	4
TAP	7	144	0
XTP	7	192	1
TAP	7	336	0
TAP	7	336	6
TAP	8	48	6
TAP	8	96	7
HLD	8	144	6	96
HLD	8	240	1	96
HLD	8	336	4	96
TAP	9	48	3
TAP	9	96	4
HLD	9	144	2	96
HLD	9	144	5	96
XTP	9	336	0
XTP	9	336	7
TAP	10	48	1
STR	10	96	1
SCR	10	96	1	96	72	4
TAP	10	144	0
XTP	10	192	1
TAP	10	336	6
TAP	11	0	7
TAP	11	48	6
TAP	11	96	7
TAP	11	144	0
TAP	11	144	5
TAP	11	240	2
TAP	11	240	7
TAP	11	336	3
STR	11	336	4
SCR	11	336	4	96	432	3
TTP	12	96	5	B	0	M1
TTP	12	288	2	B	0	M1
TTP	13	96	0	C	0	M1
TAP	13	240	4
TAP	13	288	3
STR	13	336	2
SUR	13	336	2	96	96	7
STR	13	336	6
SCL	13	336	6	96	96	3
TAP	14	240	3
TAP	14	288	4
STR	14	336	1
SCR	14	336	1	96	96	4
STR	14	336	5
SUL	14	336	5	96	96	0
TAP	15	240	4
TAP	15	288	3
STR	15	336	2
SUL	15	336	2	96	96	3
STR	15	336	5
SCR	15	336	5	96	96	1
TAP	16	240	3
TAP	16	288	4
STR	16	336	2
SCL	16	336	2	96	96	6
STR	16	336	5
SUR	16	336	5	96	96	4
TAP	17	240	4
TAP	17	288	3
STR	17	336	2
SUR	17	336	2	96	96	0
STR	17	336	7
SCL	17	336	7	96	96	3
TAP	18	240	3
TAP	18	288	4
STR	18	336	0
SCR	18	336	0	96	96	4
STR	18	336	5
SUL	18	336	5	96	96	7
TAP	19	240	4
TAP	19	288	3
HLD	19	336	2	144
HLD	19	336	5	144
TAP	20	192	3
TAP	20	192	4
TAP	20	240	2
TAP	20	240	5
TAP	20	288	1
TAP	20	288	6
HLD	20	336	0	144
HLD	20	336	7	384
TAP	21	192	3
TAP	21	240	3
TAP	21	288	3
BRK	21	336	3
TAP	22	48	5
TAP	22	96	4
TAP	22	144	3
TAP	22	192	2
STR	22	240	1
SI_	22	240	1	96	48	5
TAP	22	288	0
XTP	22	336	1
STR	22	336	7
SI_	22	336	7	96	48	3
STR	23	48	2
SCL	23	48	2	96	120	5
XTP	23	48	7
XTP	23	144	2
XTP	23	144	5
TAP	23	336	3
TAP	23	336	4
TAP	24	48	2
TAP	24	96	3
TAP	24	144	4
TAP	24	192	5
STR	24	240	6
SI_	24	240	6	96	48	2
TAP	24	288	7
STR	24	336	0
SI_	24	336	0	96	48	4
XTP	24	336	6
XTP	25	48	0
STR	25	48	7
SI_	25	48	7	96	48	3
XTP	25	144	2
XTP	25	144	7
TAP	25	240	1
TAP	25	288	1
TAP	25	336	0
HLD	25	336	2	384
TAP	26	96	3
TAP	26	192	0
TAP	26	240	7
TAP	26	288	6
HLD	26	336	5	384
TAP	27	96	4
TAP	27	192	7
TAP	27	240	0
TAP	27	288	1
STR	27	336	2
SCL	27	336	2	96	240	5
TAP	28	48	4
TAP	28	96	4
TAP	28	144	4
TAP	28	192	3
STR	28	240	3
SI_	28	240	3	96	48	7
TAP	28	288	3
XTP	28	336	3
BRK	29	96	1
BRK	29	96	5
HLD	29	192	2	48
HLD	29	264	1	48
HLD	29	264	3	48
TAP	29	336	0
TAP	29	336	4
STR	30	0	0
SI_	30	0	0	96	96	3
HLD	30	0	4	528
TTP	30	336	6	E	0	M1
TTP	31	48	0	C	0	M1
TTP	31	144	2	E	0	M1
TAP	31	240	2
TAP	31	288	3
HLD	31	336	2	96
HLD	32	48	1	96
HLD	32	144	0	96
STR	32	240	7
SCL	32	240	7	96	240	0
THO	32	336	0	240	C	1	M1
XTP	34	0	1
XTP	34	0	4
TAP	34	48	2
TAP	34	96	3
TAP	34	144	4
TAP	34	144	6
TAP	34	240	2
TAP	34	240	3
TAP	34	336	0
TAP	34	336	5
TAP	35	0	0
TAP	35	0	5
TAP	35	48	6
TAP	35	96	7
TAP	35	144	0
TAP	35	144	2
TAP	35	240	6
TAP	35	288	7
HLD	35	336	6	96
HLD	36	48	5	96
HLD	36	144	4	96
HLD	36	240	3	96
HLD	36	336	2	96
TAP	37	48	1
TAP	37	96	1
XTP	37	144	0
XTP	37	144	2
XTP	37	240	5
XTP	37	240	7
HLD	37	336	2	144
HLD	37	336	6	144
TTP	38	192	3	B	0	M1
TTP	38	192	7	B	0	M1
TTP	38	240	2	B	0	M1
TTP	38	240	6	B	0	M1
TTP	38	288	1	B	0	M1
TTP	38	288	5	B	0	M1
TTP	38	336	0	B	0	M1
TTP	38	336	4	B	0	M1
THO	39	96	0	288	C	0	M1
TTP	39	96	2	E	0	M1
TTP	39	96	6	E	0	M1
TAP	40	240	4
TAP	40	288	3
XTP	40	336	2
XST	40	336	5
SCR	40	336	5	96	96	1
TTP	41	96	3	B	0	M1
TTP	41	96	4	B	0	M1
STR	41	192	2
SCL	41	192	2	96	48	7
TAP	41	192	5
TTP	41	288	3	B	0	M1
TTP	41	288	4	B	0	M1
TAP	42	0	2
STR	42	0	5
SCR	42	0	5	96	48	0
TTP	42	96	1	B	0	M1
TTP	42	112	2	B	0	M1
TTP	42	128	3	B	0	M1
TTP	42	144	4	B	0	M1
TAP	42	288	2
TAP	42	288	5
XST	42	336	2
SCL	42	336	2	96	96	6
XTP	42	336	5
TTP	43	96	3	B	0	M1
TTP	43	96	4	B	0	M1
TAP	43	192	2
STR	43	192	5
SCR	43	192	5	96	48	0
TTP	43	288	3	B	0	M1
TTP	43	288	4	B	0	M1
STR	44	0	2
SCL	44	0	2	96	48	7
TAP	44	0	5
TTP	44	96	6	B	0	M1
TTP	44	112	5	B	0	M1
TTP	44	128	4	B	0	M1
TTP	44	144	3	B	0	M1
TAP	44	240	4
TAP	44	288	3
XTP	44	336	2
XST	44	336	5
SCR	44	336	5	96	96	1
TTP	45	96	3	B	0	M1
TTP	45	96	4	B	0	M1
STR	45	192	2
SCL	45	192	2	96	48	7
TAP	45	192	5
TTP	45	288	3	B	0	M1
TTP	45	288	4	B	0	M1
TAP	46	0	2
STR	46	0	5
SCR	46	0	5	96	48	0
TTP	46	96	1	B	0	M1
TTP	46	112	2	B	0	M1
TTP	46	128	3	B	0	M1
TTP	46	144	4	B	0	M1
TAP	46	240	3
TAP	46	288	4
XTP	46	336	2
XTP	46	336	5
TAP	47	48	6
TAP	47	96	7
TAP	47	144	0
TAP	47	144	5
TAP	47	240	1
TAP	47	288	0
TAP	47	336	2
TAP	47	336	7
TAP	48	48	5
TAP	48	48	7
STR	48	96	5
SI_	48	96	5	96	48	0
STR	48	96	7
SI_	48	96	7	96	48	2
XTP	48	336	1
XST	48	336	4
SCR	48	336	4	96	96	0
TTP	49	96	2	B	0	M1
TTP	49	96	3	B	0	M1
STR	49	192	1
SCL	49	192	1	96	48	6
TAP	49	192	4
TTP	49	288	4	B	0	M1
TTP	49	288	5	B	0	M1
TAP	50	0	1
STR	50	0	4
SCR	50	0	4	96	48	7
TTP	50	96	7	B	0	M1
TTP	50	112	6	B	0	M1
TTP	50	128	5	B	0	M1
TTP	50	144	4	B	0	M1
TAP	50	240	1
TAP	50	288	2
XST	50	336	3
SCL	50	336	3	96	96	7
XTP	50	336	4
TTP	51	96	4	B	0	M1
TTP	51	96	5	B	0	M1
TAP	51	192	3
STR	51	192	6
SCR	51	192	6	96	48	1
TTP	51	288	2	B	0	M1
TTP	51	288	3	B	0	M1
STR	52	0	3
SCL	52	0	3	96	48	0
TAP	52	0	6
TTP	52	96	0	B	0	M1
TTP	52	112	1	B	0	M1
TTP	52	128	2	B	0	M1
TTP	52	144	3	B	0	M1
TAP	52	240	6
TAP	52	288	5
BRK	52	336	3
BST	52	336	4
SCR	52	336	4	96	528	3
TTP	53	96	5	B	0	M1
TTP	53	192	6	B	0	M1
TTP	53	288	7	B	0	M1
TTP	54	0	0	B	0	M1
TTP	54	96	1	B	0	M1
TTP	54	192	2	B	0	M1
TAP	54	288	2
TAP	54	288	5
BST	54	336	2
SCL	54	336	2	96	336	5
BRK	54	336	5
TTP	55	96	2	B	0	M1
TTP	55	192	0	B	0	M1
TTP	55	288	7	B	0	M1
TTP	56	0	5	B	0	M1
TAP	56	96	1
TAP	56	96	6
TAP	56	144	1
TAP	56	144	6
TAP	56	240	3
TAP	56	240	4
TAP	56	336	2
STR	56	336	5
SCR	56	336	5	96	192	1
STR	57	144	1
SUL	57	144	1	96	144	4
STR	57	288	4
SCL	57	288	4	96	144	0
STR	58	48	0
SCL	58	48	0	96	336	1
TTP	58	192	5	B	0	M1
TTP	58	288	4	B	0	M1
TTP	59	0	3	B	0	M1
TTP	59	96	2	B	0	M1
HLD	59	192	0	96
HLD	59	288	4	96
STR	60	0	1
SCL	60	0	1	96	144	6
STR	60	144	6
SUR	60	144	6	96	144	3
STR	60	288	3
SCR	60	288	3	96	144	7
STR	61	48	7
SCR	61	48	7	96	336	6
TTP	61	192	2	B	0	M1
TTP	61	288	3	B	0	M1
TTP	62	0	4	B	0	M1
TTP	62	96	5	B	0	M1
TTP	62	192	0	C	1	M1
TTP	62	192	1	B	0	M1
TTP	62	192	6	B	0	M1
HLD	63	0	0	96
HLD	63	0	5	96
HLD	63	144	3	96
HLD	63	144	6	96
HLD	63	288	1	96
HLD	63	288	4	96
TAP	64	48	2
HLD	64	48	7	336
TTP	64	192	0	B	0	M1
TTP	64	288	0	C	0	M1
TTP	65	0	4	B	0	M1
TAP	65	96	3
TAP	65	96	5
TAP	65	144	3
TAP	65	144	5
TAP	65	240	0
TAP	65	240	4
HLD	65	288	0	672
TAP	65	288	4
STR	66	0	6
SI_	66	0	6	96	48	2
STR	66	192	1
SI_	66	192	1	96	48	5
STR	67	0	7
SI_	67	0	7	96	48	3
XTP	67	192	4
TAP	67	288	2
TAP	67	288	6
TAP	67	336	2
TAP	67	336	6
TAP	68	48	4
TAP	68	48	5
TAP	68	144	2
TAP	68	144	3
TAP	68	240	2
TAP	68	240	5
TAP	68	288	1
TAP	68	288	6
BRK	68	336	0
BRK	68	336	7
STR	69	144	1
SCR	69	144	1	96	240	0
HLD	69	144	4	576
THO	70	192	0	144	C	0	M1
TAP	71	48	0
TAP	71	48	1
HLD	71	144	3	576
STR	71	144	6
SCL	71	144	6	96	240	7
THO	72	192	0	144	C	0	M1
TAP	73	48	6
TAP	73	48	7
STR	73	144	1
SI_	73	144	1	96	144	6
TAP	73	144	4
TAP	73	288	4
TTP	74	0	4	B	0	M1
TTP	74	0	5	B	0	M1
TAP	74	144	3
STR	74	144	6
SI_	74	144	6	96	144	1
TAP	74	240	3
TAP	74	288	3
TTP	75	0	2	B	0	M1
TTP	75	0	3	B	0	M1
XST	75	144	4
SI_	75	144	4	96	48	0
XTP	75	144	5
TAP	75	240	3
TAP	75	240	4
XTP	75	336	2
XST	75	336	3
SI_	75	336	3	96	48	7
TAP	76	48	3
TAP	76	48	4
XTP	76	144	4
XTP	76	144	5
TAP	76	240	1
TAP	76	240	3
TAP	76	288	4
TAP	76	288	6
BRK	76	336	0
BRK	76	336	7
HLD	77	144	2	336
HLD	77	144	5	336
XST	78	192	0
SI_	78	192	0	96	48	4
XST	78	192	7
SI_	78	192	7	96	48	3
TTP	78	300	0	B	0	M1
TTP	78	300	7	B	0	M1
TTP	78	312	0	C	0	M1
TTP	78	324	3	B	0	M1
TTP	78	324	4	B	0	M1
TAP	79	48	1
TAP	79	48	6
TAP	79	96	2
TAP	79	96	5
XTP	79	144	3
XST	79	144	4
SCR	79	144	4	96	96	0
TTP	79	288	2	B	0	M1
TTP	79	288	3	B	0	M1
STR	80	0	1
SCL	80	0	1	96	48	6
TAP	80	0	4
TTP	80	96	4	B	0	M1
TTP	80	96	5	B	0	M1
TAP	80	192	1
STR	80	192	4
SCR	80	192	4	96	48	7
TTP	80	288	7	B	0	M1
TTP	80	304	6	B	0	M1
TTP	80	320	5	B	0	M1
TTP	80	336	4	B	0	M1
TAP	81	48	1
TAP	81	96	2
BST	81	144	3
SCL	81	144	3	96	528	4
BRK	81	144	4
TTP	81	288	2	B	0	M1
TTP	82	0	1	B	0	M1
TTP	82	96	0	B	0	M1
TTP	82	192	7	B	0	M1
TTP	82	288	6	B	0	M1
TTP	83	0	5	B	0	M1
TAP	83	96	2
TAP	83	96	5
BRK	83	144	2
BST	83	144	5
SCR	83	144	5	96	336	2
TTP	83	288	5	B	0	M1
TTP	84	0	7	B	0	M1
TTP	84	96	0	B	0	M1
TTP	84	192	2	B	0	M1
TAP	84	240	5
TAP	84	264	6
TAP	84	288	7
TAP	84	312	0
TAP	84	336	1
TAP	84	360	2
XTP	85	0	3
XTP	85	0	4
XST	85	48	1
SI_	85	48	1	96	48	4
XST	85	48	6
SI_	85	48	6	96	48	3
BRK	85	144	1
BRK	85	144	6
TAP	85	240	0
TAP	85	240	1
STR	85	288	0
SI_	85	288	0	96	48	4
STR	85	288	1
SI_	85	288	1	96	48	5
TAP	85	336	2
TAP	85	336	7
XTP	86	0	0
XTP	86	0	1
BRK	86	144	1
BRK	86	144	6
TAP	86	240	6
TAP	86	240	7
STR	86	288	6
SI_	86	288	6	96	48	2
STR	86	288	7
SI_	86	288	7	96	48	3
TAP	86	336	0
TAP	86	336	5
XTP	87	0	6
XTP	87	0	7
BRK	87	144	1
BRK	87	144	6
TAP	87	240	2
TAP	87	240	4
TAP	87	288	3
TAP	87	288	5
TAP	87	336	4
HLD	87	336	6	96
HLD	88	48	7	96
HLD	88	144	0	96
HLD	88	240	1	96
STR	88	336	2
SI_	88	336	2	96	48	6
TAP	89	192	0
TAP	89	192	4
TAP	89	288	2
TAP	89	288	3
TAP	89	336	2
TAP	89	336	3
STR	90	48	1
SI_	90	48	1	96	48	4
STR	90	48	5
SI_	90	48	5	96	48	0
STR	90	240	2
SI_	90	240	2	96	48	7
STR	90	240	6
SI_	90	240	6	96	48	3
TAP	91	48	1
TAP	91	48	5
TAP	91	96	2
TAP	91	96	6
XTP	91	144	3
HLD	91	144	7	768
STR	91	288	1
SI_	91	288	1	96	48	5
STR	92	96	6
SI_	92	96	6	96	48	2
STR	92	288	0
SI_	92	288	0	96	48	4
XTP	93	96	3
XST	93	144	3
SCL	93	144	3	96	48	0
TTP	93	240	0	B	0	M1
TTP	93	256	1	B	0	M1
TTP	93	272	2	B	0	M1
TTP	93	288	3	B	0	M1
XST	93	336	4
SCR	93	336	4	96	48	7
TTP	94	48	7	B	0	M1
TTP	94	64	6	B	0	M1
TTP	94	80	5	B	0	M1
TTP	94	96	4	B	0	M1
XST	94	144	3
SI_	94	144	3	96	48	7
XTP	94	240	3
XST	94	240	4
SI_	94	240	4	96	48	0
XTP	94	336	2
XTP	94	336	4
XTP	95	48	3
XTP	95	48	5
TAP	95	96	2
BRK	95	144	1
BRK	95	144	6

T_REC_TAP	216
T_REC_BRK	19
T_REC_XTP	48
T_REC_HLD	44
T_REC_XHO	0
T_REC_STR	69
T_REC_BST	4
T_REC_XST	16
T_REC_TTP	123
T_REC_THO	5
T_REC_SLD	89
T_REC_ALL	633
T_NUM_TAP	472
T_NUM_BRK	23
T_NUM_HLD	49
T_NUM_SLD	89
T_NUM_ALL	633
T_JUDGE_TAP	495
T_JUDGE_HLD	200
T_JUDGE_SLD	89
T_JUDGE_ALL	784
TTM_EACHPAIRS	137
TTM_SCR_TAP	236000
TTM_SCR_BRK	59800
TTM_SCR_HLD	49000
TTM_SCR_SLD	133500
TTM_SCR_ALL	478300
TTM_SCR_S	461750
TTM_SCR_SS	476000
TTM_RAT_ACV	10048

