VERSION	0.00.00	1.03.00
FES_MODE	0
BPM_DEF	172.000	172.000	172.000	172.000
MET_DEF	4	4
RESOLUTION	384
CLK_DEF	384
COMPATIBLE_CODE	MA2

BPM	0	0	172.000
MET	0	0	4	4
MET	57	0	4	3
MET	63	288	4	2
MET	64	96	4	3
MET	65	288	4	4
MET	66	288	4	3
MET	67	192	4	4

STR	2	0	4
SCL	2	0	4	96	96	1
TAP	2	0	5
TAP	3	0	2
STR	3	0	3
SCR	3	0	3	96	96	6
XTP	3	336	0
XTP	4	144	3
XTP	4	144	6
HLD	4	336	0	96
TAP	5	48	7
TAP	5	96	7
TAP	5	192	3
TAP	5	192	5
TAP	5	240	3
TAP	5	240	5
HLD	5	336	6	96
TAP	6	48	4
TAP	6	96	4
TAP	6	192	3
TAP	6	192	7
TAP	6	240	3
TAP	6	240	7
HLD	6	336	1	96
TAP	7	48	3
TAP	7	96	3
TAP	7	192	0
TAP	7	192	4
TAP	7	240	0
TAP	7	240	4
HLD	7	336	7	96
HLD	8	48	6	96
HLD	8	144	5	96
HLD	8	240	4	96
HLD	8	336	3	96
TAP	9	48	2
HLD	9	144	1	96
HLD	9	144	4	96
HLD	9	336	7	96
TAP	10	48	0
TAP	10	96	0
TAP	10	192	2
TAP	10	192	4
TAP	10	240	2
TAP	10	240	4
HLD	10	336	1	96
HLD	11	48	3	96
HLD	11	144	4	96
STR	11	240	6
SCL	11	240	6	96	192	7
HLD	12	336	2	96
TAP	13	48	3
TAP	13	96	3
TAP	13	192	1
TAP	13	192	4
TAP	13	288	3
TAP	13	288	5
TAP	14	0	6
HLD	14	96	6	576
TTP	14	288	5	E	0	M1
TTP	15	96	3	E	0	M1
TTP	15	288	4	E	0	M1
TAP	16	0	1
HLD	16	96	1	672
TTP	16	288	3	E	0	M1
TTP	17	96	5	E	0	M1
TTP	17	288	4	E	0	M1
TAP	18	0	6
HLD	18	96	6	576
TTP	18	288	5	E	0	M1
TTP	19	96	3	E	0	M1
TTP	19	288	4	E	0	M1
TAP	20	0	2
TAP	20	96	1
TAP	20	192	7
TAP	20	240	7
TAP	20	288	0
STR	20	336	0
SI_	20	336	0	96	96	4
TAP	21	192	5
TAP	21	240	5
TAP	21	288	4
HLD	21	336	6	96
TAP	22	48	4
TAP	22	96	4
HLD	22	192	5	96
TAP	22	288	0
HLD	22	336	0	96
HLD	23	48	2	96
TAP	23	144	3
TAP	23	240	1
TAP	23	240	4
HLD	23	336	1	96
TAP	24	48	3
TAP	24	96	3
HLD	24	192	2	96
TAP	24	288	7
HLD	24	336	7	96
HLD	25	48	5	96
TAP	25	144	4
STR	25	240	3
SUL	25	240	3	96	240	1
HLD	25	240	6	96
TAP	26	240	7
HLD	26	336	1	96
STR	26	336	4
SCR	26	336	4	96	96	7
TAP	27	144	0
TAP	27	192	0
TAP	27	288	1
TAP	27	288	6
TAP	27	336	1
STR	27	336	6
SCL	27	336	6	96	144	1
XTP	28	288	0
XTP	28	288	7
XTP	28	336	0
HLD	28	336	7	96
STR	29	48	5
SI_	29	48	5	96	96	1
STR	30	0	5
SCR	30	0	5	96	288	3
TAP	31	240	5
TAP	31	288	3
TAP	31	288	5
STR	32	0	2
SCL	32	0	2	96	288	4
TAP	33	240	2
TAP	33	288	2
TAP	33	288	4
HLD	34	0	3	96
HLD	34	0	6	96
HLD	34	144	1	96
HLD	34	144	4	96
TAP	34	336	7
TAP	35	0	7
TAP	35	96	2
TAP	35	96	5
TAP	35	144	2
TAP	35	144	5
HLD	35	240	4	96
HLD	35	336	5	96
HLD	36	48	6	96
HLD	36	144	1	96
HLD	36	240	4	96
HLD	36	336	5	96
HLD	37	48	6	96
HLD	37	144	0	96
STR	37	240	3
SCL	37	240	3	96	240	4
XTP	38	336	3
XTP	38	336	4
XTP	39	48	2
XTP	39	48	5
STR	39	144	1
SXR	39	144	1	96	240	4
XHO	39	144	6	96
TAP	40	240	6
TAP	40	240	7
TAP	40	336	4
TAP	40	336	5
TAP	41	48	0
TAP	41	96	0
TAP	41	192	0
TAP	41	192	1
TAP	41	288	2
TAP	41	288	3
HLD	42	0	6	96
TAP	42	96	7
TAP	42	144	0
TAP	42	144	5
TAP	42	240	2
TAP	42	288	2
TAP	42	336	1
TAP	42	336	3
TAP	43	48	7
TAP	43	96	7
TAP	43	192	6
TAP	43	192	7
TAP	43	288	4
TAP	43	288	5
HLD	44	0	1	96
TAP	44	96	0
TAP	44	144	2
TAP	44	144	7
TAP	44	240	5
TAP	44	288	5
STR	44	336	4
SCL	44	336	4	96	96	1
TAP	44	336	6
STR	45	192	7
SCL	45	192	7	96	96	4
HLD	46	0	0	96
TAP	46	96	7
TAP	46	144	7
TAP	46	240	3
HLD	46	240	5	96
HLD	46	336	7	96
HLD	47	48	0	96
HLD	47	144	2	96
HLD	47	240	5	96
STR	47	336	4
SCR	47	336	4	96	192	2
TAP	48	336	2
TAP	48	336	4
TAP	49	48	7
TAP	49	96	7
TAP	49	192	6
TAP	49	192	7
TAP	49	288	4
TAP	49	288	5
HLD	50	0	1	96
TAP	50	96	0
TAP	50	144	2
TAP	50	144	7
TAP	50	240	5
TAP	50	288	5
TAP	50	336	4
TAP	50	336	6
TAP	51	48	0
TAP	51	96	0
TAP	51	192	0
TAP	51	192	1
TAP	51	288	2
TAP	51	288	3
HLD	52	0	6	96
TAP	52	96	7
TAP	52	144	0
TAP	52	144	5
TAP	52	240	2
TAP	52	288	2
TAP	52	336	1
STR	52	336	3
SCR	52	336	3	96	96	6
STR	53	192	0
SCR	53	192	0	96	96	3
HLD	54	0	7	96
TAP	54	96	0
TAP	54	144	0
TAP	54	144	7
TAP	54	240	5
TAP	54	288	5
TAP	54	336	4
TAP	54	336	6
TAP	55	48	0
TAP	55	96	0
TAP	55	192	1
TAP	55	192	3
TAP	55	288	3
TAP	55	288	4
TAP	56	0	4
TAP	56	0	6
TAP	56	96	0
TAP	56	96	7
TAP	56	144	0
TAP	56	144	7
TAP	56	240	2
TAP	56	240	5
HLD	56	336	3	336
HLD	57	288	1	288
HLD	58	192	0	288
HLD	59	96	7	288
HLD	60	0	5	288
HLD	60	288	3	288
HLD	61	192	2	288
TTP	62	96	4	E	0	M1
TTP	62	192	0	C	1	M1
HLD	63	0	7	240
TAP	63	96	4
TAP	63	144	4
TAP	63	240	0
HLD	63	288	0	240
TAP	64	0	3
TAP	64	48	3
TAP	64	144	6
HLD	64	192	6	96
HLD	64	288	4	96
HLD	65	0	3	96
HLD	65	96	1	96
HLD	65	192	6	96
STR	65	288	0
SCR	65	288	0	96	384	7
HLD	67	192	6	240
TAP	67	288	4
TAP	67	336	4
HLD	68	48	1	96
TAP	68	144	3
TAP	68	240	0
TAP	68	240	7
TAP	68	288	1
TAP	68	288	6
BRK	68	336	2
BRK	68	336	5
HLD	69	144	7	768
STR	70	192	4
SI_	70	192	4	96	96	0
HLD	71	144	0	768
STR	72	192	3
SI_	72	192	3	96	96	7
HLD	73	144	7	768
TAP	74	0	4
TAP	74	192	2
TAP	75	0	3
TAP	75	96	0
TAP	75	144	0
TAP	75	336	4
TAP	75	336	5
STR	76	144	2
SCL	76	144	2	96	144	5
TAP	76	144	3
HLD	77	144	0	336
HLD	77	144	7	336
XTP	78	192	1
XTP	78	192	4
XTP	78	288	4
XTP	78	288	5
XTP	78	336	3
XTP	78	336	6
TAP	79	48	2
TAP	79	96	2
TAP	79	144	1
TAP	79	144	3
TAP	79	240	7
TAP	79	288	7
TAP	80	0	6
TAP	80	0	7
TAP	80	96	3
TAP	80	96	5
HLD	80	192	1	96
TAP	80	288	0
TAP	80	336	2
TAP	80	336	7
TAP	81	48	5
TAP	81	96	5
STR	81	144	4
SCL	81	144	4	96	96	1
TAP	81	144	6
STR	82	0	7
SCL	82	0	7	96	96	4
HLD	82	192	0	96
TAP	82	288	7
TAP	82	336	0
TAP	82	336	7
TAP	83	48	2
TAP	83	96	2
TAP	83	144	1
TAP	83	144	3
TAP	83	240	7
TAP	83	288	7
TAP	84	0	4
TAP	84	0	6
TAP	84	96	3
TAP	84	96	4
TAP	84	192	1
TAP	84	192	3
TAP	84	288	0
TAP	84	288	7
TAP	85	0	2
TAP	85	0	5
TAP	85	48	2
TAP	85	48	5
TAP	85	144	1
STR	85	144	6
SI_	85	144	6	96	48	2
TAP	85	240	0
HLD	85	288	0	96
TAP	86	0	7
TAP	86	48	7
STR	86	144	1
SI_	86	144	1	96	48	5
TAP	86	144	6
TAP	86	240	7
HLD	86	288	7	96
TAP	87	0	0
TAP	87	48	0
TAP	87	144	2
TAP	87	144	3
TAP	87	240	4
TAP	87	240	5
TAP	87	336	6
TAP	87	336	7
TAP	88	48	0
TAP	88	48	1
TAP	88	144	2
TAP	88	144	3
TAP	88	240	0
TAP	88	240	1
TAP	88	336	6
TAP	88	336	7
TAP	89	48	4
TAP	89	48	5
TAP	89	96	4
TAP	89	96	5
HLD	89	192	0	96
TAP	89	288	3
TAP	89	336	3
TAP	90	48	5
HLD	90	144	6	96
HLD	90	240	4	96
HLD	90	336	3	96
HLD	91	48	1	96
STR	91	144	6
SCL	91	144	6	96	336	0
TAP	93	0	0
TAP	93	48	0
HLD	93	144	1	96
HLD	93	144	3	96
HLD	93	336	4	96
HLD	93	336	6	96
HLD	94	144	2	96
HLD	94	144	5	96
TAP	94	336	0
TAP	94	336	7
TAP	95	48	3
TAP	95	48	4
TAP	95	96	2
TAP	95	96	5
TAP	95	144	1
TAP	95	144	6

T_REC_TAP	249
T_REC_BRK	2
T_REC_XTP	16
T_REC_HLD	88
T_REC_XHO	1
T_REC_STR	26
T_REC_BST	0
T_REC_XST	0
T_REC_TTP	11
T_REC_THO	0
T_REC_SLD	26
T_REC_ALL	419
T_NUM_TAP	302
T_NUM_BRK	2
T_NUM_HLD	89
T_NUM_SLD	26
T_NUM_ALL	419
T_JUDGE_TAP	304
T_JUDGE_HLD	300
T_JUDGE_SLD	26
T_JUDGE_ALL	630
TTM_EACHPAIRS	98
TTM_SCR_TAP	151000
TTM_SCR_BRK	5200
TTM_SCR_HLD	89000
TTM_SCR_SLD	39000
TTM_SCR_ALL	284200
TTM_SCR_S	275500
TTM_SCR_SS	284000
TTM_RAT_ACV	10007

