VERSION	0.00.00	1.03.00
FES_MODE	0
BPM_DEF	172.000	172.000	172.000	172.000
MET_DEF	4	4
RESOLUTION	384
CLK_DEF	384
COMPATIBLE_CODE	MA2

BPM	0	0	172.000
MET	0	0	4	4
MET	57	0	4	3
MET	63	288	4	2
MET	64	96	4	3
MET	65	288	4	4
MET	66	288	4	3
MET	67	192	4	4

HLD	2	0	3	384
TAP	3	0	4
XTP	3	336	2
XTP	3	336	4
XTP	4	144	3
XTP	4	144	5
XTP	4	336	2
XHO	4	336	4	240
XTP	5	192	3
TAP	6	96	2
TAP	6	192	2
TAP	6	288	3
TAP	7	96	5
TAP	7	192	5
TAP	7	288	4
TAP	8	96	2
TAP	8	192	2
TAP	8	288	3
TAP	9	0	4
TAP	9	96	5
TAP	9	192	4
TAP	9	192	5
TAP	10	96	6
TAP	10	192	6
TAP	10	288	7
TAP	11	96	1
TAP	11	192	1
TAP	11	288	0
TAP	12	0	0
TAP	12	96	7
TAP	12	192	7
TAP	12	288	0
TAP	12	288	7
TAP	13	0	0
TAP	13	0	7
TAP	13	96	0
TAP	13	96	7
XTP	13	192	1
XTP	13	192	6
HLD	14	0	2	192
TAP	14	192	3
HLD	15	0	5	192
TAP	15	192	4
HLD	16	0	2	192
TAP	16	192	3
TAP	17	0	4
TAP	17	96	4
TAP	17	192	3
TAP	17	192	5
HLD	18	0	6	192
TAP	18	192	7
HLD	19	0	1	192
TAP	19	192	0
HLD	20	0	7	192
HLD	20	192	0	192
TAP	21	0	7
TAP	21	96	7
XTP	21	192	0
XTP	21	192	7
XHO	22	96	1	192
HLD	22	288	2	192
TAP	23	96	3
TAP	23	192	3
TAP	23	288	3
TAP	23	288	4
HLD	24	96	5	192
HLD	24	288	6	192
TAP	25	96	7
TAP	25	192	7
TAP	25	288	0
TAP	25	288	7
HLD	26	96	6	192
HLD	26	288	5	192
HLD	27	96	4	192
STR	27	288	3
SI_	27	288	3	96	288	0
SI_	27	288	3	96	288	6
XTP	29	192	0
XTP	29	192	7
TTP	30	0	7	E	0	L1
TTP	30	192	0	C	0	L1
TTP	31	0	2	B	0	L1
TTP	31	0	3	B	0	L1
TTP	32	0	1	E	0	L1
TTP	32	192	0	C	0	L1
TTP	33	0	4	B	0	L1
TTP	33	0	5	B	0	L1
TTP	34	0	6	E	0	L1
TTP	34	96	5	B	0	L1
TTP	34	192	4	B	0	L1
TTP	35	0	3	B	0	L1
TTP	35	96	2	B	0	L1
TTP	35	192	2	E	0	L1
TTP	36	0	1	B	0	L1
TTP	36	0	1	E	0	L1
TTP	36	192	5	B	0	L1
TTP	36	192	6	B	0	L1
TTP	37	0	2	B	0	L1
TTP	37	0	3	E	0	L1
TTP	37	192	4	B	0	L1
TTP	37	192	5	E	0	L1
THO	38	0	0	384	C	0	L1
TTP	40	0	0	C	1	L1
TTP	40	0	1	B	0	L1
TTP	40	0	6	B	0	L1
XTP	41	0	0
TAP	41	96	1
TAP	41	192	2
TAP	41	192	3
TAP	41	288	2
TAP	41	288	3
TAP	42	0	4
TAP	42	96	5
TAP	42	192	3
TAP	42	192	6
XTP	43	0	7
TAP	43	96	6
TAP	43	192	4
TAP	43	192	5
TAP	43	288	4
TAP	43	288	5
TAP	44	0	3
TAP	44	96	2
TAP	44	192	1
TAP	44	192	4
TAP	45	0	5
TAP	45	96	4
TAP	45	96	5
TAP	45	192	3
TAP	45	192	6
TAP	46	0	2
TAP	46	96	2
TAP	46	96	3
TAP	46	192	1
TAP	46	192	4
TAP	46	288	0
TAP	47	0	0
TAP	47	96	0
TAP	47	192	7
TAP	47	288	7
TAP	48	0	0
TAP	48	0	7
TAP	48	96	1
TAP	48	96	6
XTP	48	192	2
XTP	48	192	5
XTP	49	0	3
TAP	49	96	2
TAP	49	192	0
TAP	49	192	1
TAP	49	288	0
TAP	49	288	1
TAP	50	0	7
TAP	50	96	6
TAP	50	192	0
TAP	50	192	5
XTP	51	0	4
TAP	51	96	5
TAP	51	192	6
TAP	51	192	7
TAP	51	288	6
TAP	51	288	7
TAP	52	0	0
TAP	52	96	1
TAP	52	192	2
TAP	52	192	7
TAP	53	0	1
TAP	53	96	1
TAP	53	192	0
TAP	53	288	0
TAP	54	0	7
TAP	54	96	7
TAP	54	192	0
TAP	54	192	7
STR	54	288	0
SI_	54	288	0	96	192	3
STR	54	288	7
SI_	54	288	7	96	192	4
XTP	56	0	2
XTP	56	0	5
TAP	56	96	3
TAP	56	192	2
XST	56	288	1
SI_	56	288	1	96	288	6
STR	58	192	5
SI_	58	192	5	96	288	2
STR	60	0	1
SI_	60	0	1	96	288	4
TAP	61	192	3
TAP	61	192	4
TAP	61	288	3
TAP	61	288	4
TAP	62	0	2
TAP	62	0	5
BRK	62	96	2
BRK	62	96	5
TAP	63	0	2
TAP	63	96	3
TAP	63	192	4
TAP	63	288	5
TAP	64	0	4
TAP	64	0	6
TAP	64	96	5
TAP	64	192	4
TAP	64	288	3
TAP	65	0	2
TAP	65	96	1
TAP	65	96	3
STR	65	192	2
SCL	65	192	2	96	384	5
HLD	67	192	2	144
HLD	67	192	5	144
TTP	68	144	3	E	0	L1
TTP	68	144	5	E	0	L1
TTP	68	336	0	C	0	L1
TTP	69	144	0	E	0	L1
THO	70	192	0	336	C	0	L1
TTP	72	192	6	E	0	L1
TTP	73	0	7	E	0	L1
TTP	73	192	0	C	0	L1
TTP	74	0	3	E	0	L1
TTP	74	192	2	E	0	L1
THO	75	0	0	528	C	1	L1
XHO	78	192	1	144
XHO	78	192	6	144
XTP	79	192	0
XTP	79	192	7
TAP	79	288	0
TAP	79	288	7
TAP	80	0	1
TAP	80	0	6
TAP	80	96	1
TAP	80	96	6
TAP	80	192	2
TAP	80	192	5
TAP	80	288	2
TAP	80	288	5
XTP	81	0	3
XTP	81	0	4
TAP	81	192	4
TAP	81	192	5
TAP	81	288	4
TAP	81	288	5
TAP	82	0	3
TAP	82	0	6
TAP	82	192	2
TAP	82	192	3
TAP	82	288	2
TAP	82	288	3
TAP	83	0	1
TAP	83	0	4
TAP	83	96	0
XST	83	192	0
SI_	83	192	0	96	288	4
XST	83	192	7
SI_	83	192	7	96	288	3
XHO	85	0	4	96
XHO	85	0	5	96
XHO	85	144	4	96
XHO	85	144	5	96
XTP	85	288	4
XTP	85	288	5
XTP	86	0	3
XTP	86	0	6
XHO	86	144	2	96
XHO	86	144	3	96
XTP	86	288	2
XTP	86	288	3
TAP	87	0	1
TAP	87	0	4
XHO	87	144	4	96
XHO	87	144	5	96
XTP	87	288	4
XTP	87	288	5
TAP	88	0	3
TAP	88	0	6
TAP	88	96	7
TAP	88	192	7
TAP	88	288	0
XTP	89	0	1
XTP	89	0	6
TAP	89	192	2
TAP	89	288	2
TAP	89	288	3
TAP	90	0	1
TAP	90	0	4
TAP	90	96	1
TAP	90	96	4
TAP	90	192	0
TAP	90	288	0
TAP	90	288	7
TAP	91	0	1
TAP	91	0	6
STR	91	96	1
SLR	91	96	1	96	384	0
STR	91	96	6
SLL	91	96	6	96	384	7
XHO	93	0	1	144
XHO	93	0	6	144
XTP	93	336	3
XTP	93	336	5
XTP	94	144	2
XTP	94	144	4
TAP	94	240	3
TAP	94	288	3
TAP	95	0	2
TAP	95	0	5
TAP	95	96	1
TAP	95	96	6
XTP	95	144	1
XTP	95	144	6

T_REC_TAP	179
T_REC_BRK	2
T_REC_XTP	40
T_REC_HLD	16
T_REC_XHO	14
T_REC_STR	8
T_REC_BST	0
T_REC_XST	3
T_REC_TTP	34
T_REC_THO	3
T_REC_SLD	12
T_REC_ALL	311
T_NUM_TAP	264
T_NUM_BRK	2
T_NUM_HLD	33
T_NUM_SLD	12
T_NUM_ALL	311
T_JUDGE_TAP	266
T_JUDGE_HLD	129
T_JUDGE_SLD	12
T_JUDGE_ALL	407
TTM_EACHPAIRS	80
TTM_SCR_TAP	132000
TTM_SCR_BRK	5200
TTM_SCR_HLD	33000
TTM_SCR_SLD	18000
TTM_SCR_ALL	188200
TTM_SCR_S	182400
TTM_SCR_SS	188000
TTM_RAT_ACV	10010

