VERSION	0.00.00	1.03.00
FES_MODE	0
BPM_DEF	172.000	172.000	172.000	172.000
MET_DEF	4	4
RESOLUTION	384
CLK_DEF	384
COMPATIBLE_CODE	MA2

BPM	0	0	172.000
MET	0	0	4	4
MET	57	0	4	3
MET	63	288	4	2
MET	64	96	4	3
MET	65	288	4	4
MET	66	288	4	3
MET	67	192	4	4

XTP	6	0	3
XTP	7	0	3
XHO	8	0	3	384
XTP	10	0	4
XTP	11	0	4
XHO	12	0	4	384
TAP	14	0	3
TAP	15	0	3
TAP	16	0	2
TAP	16	192	2
TAP	17	0	2
TAP	18	0	1
TAP	19	0	1
TAP	20	0	0
TAP	20	192	0
XTP	21	0	0
XTP	21	0	7
TAP	22	0	7
TAP	22	96	7
TAP	22	192	7
TAP	23	0	7
TAP	24	0	6
TAP	24	96	6
TAP	24	192	6
TAP	25	0	6
TAP	26	0	5
TAP	26	192	5
TAP	27	0	4
TAP	27	192	4
HLD	28	0	3	192
XTP	29	0	3
XTP	29	0	4
TTP	30	0	4	B	0	L1
TTP	31	0	5	B	0	L1
TTP	32	0	6	B	0	L1
TTP	33	0	7	B	0	L1
TTP	34	0	0	B	0	L1
TTP	35	0	1	B	0	L1
TTP	36	0	2	B	0	L1
TTP	37	0	3	B	0	L1
THO	38	0	0	768	C	1	L1
XTP	41	0	7
TAP	41	96	7
TAP	41	192	7
TAP	42	0	7
TAP	42	96	7
TAP	42	192	0
TAP	42	192	7
XTP	43	0	0
TAP	43	96	0
TAP	43	192	0
TAP	44	0	0
TAP	44	96	0
TAP	44	192	0
TAP	44	192	7
TAP	45	0	6
TAP	45	96	6
TAP	45	192	6
TAP	46	0	5
TAP	46	96	5
TAP	46	192	5
TAP	47	0	4
TAP	47	96	4
TAP	47	192	4
TAP	48	0	3
TAP	48	0	4
XTP	49	0	3
TAP	49	96	3
TAP	49	192	3
TAP	50	0	3
TAP	50	96	3
TAP	50	192	3
TAP	50	192	4
XTP	51	0	4
TAP	51	96	4
TAP	51	192	4
TAP	52	0	4
TAP	52	96	4
TAP	52	192	3
TAP	52	192	4
TAP	53	0	2
TAP	53	96	2
TAP	53	192	2
TAP	54	0	1
TAP	54	96	1
TAP	54	192	1
TAP	55	0	0
TAP	55	96	0
TAP	55	192	0
BRK	56	0	0
BRK	56	0	7
XST	57	0	0
SI_	57	0	0	96	480	3
XST	60	0	7
SI_	60	0	7	96	480	4
TAP	63	0	0
TAP	63	192	0
HLD	64	0	0	192
TAP	65	0	7
TAP	65	192	7
STR	66	0	7
SI_	66	0	7	96	480	3
TTP	69	192	0	B	0	L1
TTP	70	192	1	B	0	L1
TTP	71	192	2	B	0	L1
TTP	72	192	3	B	0	L1
TTP	73	192	4	B	0	L1
TTP	74	192	5	B	0	L1
TTP	75	192	6	B	0	L1
TTP	76	192	7	B	0	L1
THO	77	192	0	384	C	1	L1
XTP	79	192	7
TAP	79	288	7
TAP	80	0	0
TAP	80	0	7
TAP	80	192	0
TAP	80	288	0
TAP	81	0	0
TAP	81	0	7
TAP	81	192	6
TAP	81	288	6
TAP	82	0	6
TAP	82	192	5
TAP	82	288	5
TAP	83	0	5
STR	83	192	3
SI_	83	192	3	96	288	0
STR	83	192	4
SI_	83	192	4	96	288	7
XTP	85	192	0
TAP	85	288	0
TAP	86	0	0
TAP	86	0	7
XTP	86	192	7
TAP	86	288	7
TAP	87	0	0
TAP	87	0	7
TAP	87	192	1
TAP	88	0	1
TAP	88	192	2
TAP	88	288	2
TAP	89	0	2
HLD	89	192	3	192
HLD	90	192	4	192
STR	91	192	3
SI_	91	192	3	96	288	0
STR	91	192	4
SI_	91	192	4	96	288	7
TTP	93	192	0	B	0	L1
TTP	93	192	7	B	0	L1
THO	94	192	0	336	C	0	L1

T_REC_TAP	93
T_REC_BRK	2
T_REC_XTP	15
T_REC_HLD	4
T_REC_XHO	2
T_REC_STR	5
T_REC_BST	0
T_REC_XST	2
T_REC_TTP	18
T_REC_THO	3
T_REC_SLD	7
T_REC_ALL	151
T_NUM_TAP	133
T_NUM_BRK	2
T_NUM_HLD	9
T_NUM_SLD	7
T_NUM_ALL	151
T_JUDGE_TAP	135
T_JUDGE_HLD	63
T_JUDGE_SLD	7
T_JUDGE_ALL	205
TTM_EACHPAIRS	14
TTM_SCR_TAP	66500
TTM_SCR_BRK	5200
TTM_SCR_HLD	9000
TTM_SCR_SLD	10500
TTM_SCR_ALL	91200
TTM_SCR_S	88300
TTM_SCR_SS	91000
TTM_RAT_ACV	10021

