VERSION	0.00.00	1.03.00
FES_MODE	0
BPM_DEF	174.000	174.000	174.000	174.000
MET_DEF	4	4
RESOLUTION	384
CLK_DEF	384
COMPATIBLE_CODE	MA2

BPM	0	0	174.000
MET	0	0	4	4

TAP	1	0	3
HLD	1	0	4	1248
HLD	3	0	3	1344
THO	5	0	0	768	C	0	M1
HLD	7	0	1	384
STR	8	0	7
SCL	8	0	7	96	192	4
SCR	8	0	7	96	192	2
HLD	9	0	3	384
TAP	9	192	5
TAP	9	288	5
TTP	10	0	6	B	0	M1
TTP	10	0	7	E	0	M1
TAP	10	192	2
HLD	10	192	4	192
TAP	10	288	2
TTP	11	0	1	B	0	M1
TTP	11	0	1	E	0	M1
TAP	11	192	3
TAP	11	192	4
TAP	11	288	2
STR	11	288	5
SCL	11	288	5	96	192	2
TAP	12	0	1
TAP	12	96	1
TAP	12	192	1
TAP	12	288	1
TAP	12	288	3
TAP	13	0	2
HLD	13	0	4	192
TAP	13	192	3
HLD	13	288	5	288
HLD	14	0	3	192
TAP	14	288	3
TAP	14	288	5
HLD	15	0	2	384
TAP	15	0	4
TAP	15	96	3
TAP	15	192	3
STR	15	288	1
SCL	15	288	1	96	192	4
TAP	16	288	3
TAP	16	288	5
TAP	17	0	2
HLD	17	96	1	144
TAP	17	96	3
TAP	17	240	3
TAP	17	288	2
TAP	17	288	3
TAP	18	0	5
TAP	18	96	4
HLD	18	96	6	144
TAP	18	240	4
TAP	18	288	4
TAP	18	288	5
TAP	19	0	2
HLD	19	96	1	144
TAP	19	96	3
TAP	19	240	3
TAP	19	288	1
TAP	19	288	3
TAP	20	0	5
TAP	20	96	4
HLD	20	96	6	144
TAP	20	240	4
TAP	20	288	4
TAP	20	288	6
STR	21	0	0
SCR	21	0	0	96	144	5
TAP	21	96	5
TAP	21	240	6
TAP	21	288	0
TAP	21	288	6
STR	22	0	7
SCL	22	0	7	96	144	2
TAP	22	96	2
TAP	22	240	1
TAP	22	288	1
TAP	22	288	7
STR	23	0	0
SCR	23	0	0	96	96	3
TAP	23	48	0
TAP	23	96	6
TAP	23	144	6
STR	23	192	7
SCL	23	192	7	96	96	4
TAP	23	240	7
TAP	23	288	1
TAP	23	336	1
TAP	24	0	0
TAP	24	48	0
TAP	24	96	7
TAP	24	144	7
XTP	24	192	0
XTP	24	208	1
XTP	24	224	2
XTP	24	240	7
XTP	24	256	6
XTP	24	272	5
BRK	24	288	0
XTP	24	288	4
TAP	25	0	3
HLD	25	0	5	1152
TTP	26	0	7	E	0	M1
TTP	26	16	6	E	0	M1
TTP	26	32	5	E	0	M1
TTP	27	0	1	E	0	M1
TTP	27	16	2	E	0	M1
TTP	27	32	3	E	0	M1
TTP	28	0	7	E	0	M1
TTP	28	16	6	E	0	M1
TTP	28	32	5	E	0	M1
HLD	28	192	2	1152
TAP	28	192	7
TTP	29	0	1	E	0	M1
TTP	29	16	2	E	0	M1
TTP	29	32	3	E	0	M1
TTP	30	0	7	E	0	M1
TTP	30	16	6	E	0	M1
TTP	30	32	5	E	0	M1
TTP	31	0	1	E	0	M1
TTP	31	16	2	E	0	M1
TTP	31	32	3	E	0	M1
TTP	31	192	0	E	0	M1
TTP	31	208	0	C	0	M1
TTP	31	224	4	E	0	M1
TAP	32	0	0
TAP	32	0	6
TAP	32	96	4
TAP	32	96	5
TAP	32	144	3
TAP	32	144	6
TAP	32	240	0
TAP	32	240	7
BRK	32	288	1
BRK	32	288	6
TAP	33	0	2
STR	33	0	3
SI_	33	0	3	96	48	6
TAP	33	96	1
STR	33	144	0
SI_	33	144	0	96	48	4
TAP	33	240	4
STR	33	288	5
SCR	33	288	5	96	96	1
STR	34	0	1
SCL	34	0	1	96	96	5
TAP	34	96	2
TAP	34	192	3
TAP	34	288	0
TAP	34	288	4
TAP	35	0	2
STR	35	0	3
SI_	35	0	3	96	48	6
TAP	35	96	1
STR	35	144	0
SI_	35	144	0	96	48	4
TAP	35	240	4
STR	35	288	5
SCR	35	288	5	96	96	3
XTP	36	0	3
TAP	36	144	0
TAP	36	192	0
TAP	36	192	6
TAP	36	288	1
TAP	36	288	5
TAP	37	0	3
STR	37	0	7
SI_	37	0	7	96	48	3
TAP	37	96	1
STR	37	144	2
SI_	37	144	2	96	48	6
TAP	37	240	5
STR	37	288	4
SCR	37	288	4	96	48	7
TAP	38	0	0
BRK	38	48	1
TAP	38	144	0
TAP	38	144	1
TAP	38	192	2
TAP	38	240	3
TAP	38	240	5
TAP	38	288	6
TAP	38	336	5
TAP	38	336	7
TAP	39	0	0
STR	39	0	4
SLR	39	0	4	96	144	3
TAP	39	96	3
STR	39	144	3
SLR	39	144	3	96	144	0
STR	39	240	1
SI_	39	240	1	96	48	5
BRK	39	336	1
XTP	40	96	2
XTP	40	96	6
TAP	40	192	1
TAP	40	192	3
TAP	40	240	2
TAP	40	288	3
TAP	40	288	7
TAP	41	0	6
STR	41	0	7
SI_	41	0	7	96	48	2
TAP	41	96	5
STR	41	144	4
SI_	41	144	4	96	48	0
TAP	41	240	0
STR	41	288	1
SCR	41	288	1	96	96	5
STR	42	0	5
SCL	42	0	5	96	96	1
TAP	42	96	6
TAP	42	192	7
TAP	42	288	0
TAP	42	288	6
STR	43	0	4
SI_	43	0	4	96	48	0
TAP	43	0	5
TAP	43	96	7
STR	43	144	7
SI_	43	144	7	96	48	3
STR	43	240	3
SCL	43	240	3	96	144	4
TTP	43	336	0	C	1	M1
XTP	44	96	0
TAP	44	192	6
TAP	44	192	7
TAP	44	240	0
TAP	44	240	5
XTP	44	288	1
XTP	44	288	4
STR	45	0	0
SI_	45	0	0	96	48	4
TAP	45	0	7
TAP	45	96	4
STR	45	144	5
SI_	45	144	5	96	48	1
TAP	45	240	2
STR	45	288	3
SCL	45	288	3	96	48	0
TAP	46	0	7
BRK	46	48	6
TAP	46	144	6
TAP	46	144	7
TAP	46	192	5
TAP	46	240	3
TAP	46	240	4
TAP	46	288	2
TAP	46	336	0
TAP	46	336	1
HLD	47	0	2	96
TAP	47	0	7
TAP	47	96	3
TAP	47	144	4
TAP	47	192	0
TAP	47	192	5
TAP	47	288	5
TAP	47	312	4
TAP	47	336	5
XTP	48	0	3
XTP	48	0	6
TAP	48	96	0
TAP	48	96	1
XTP	48	144	2
XTP	48	144	7
TAP	48	240	3
TAP	48	240	4
BRK	48	288	1
BRK	48	288	6
STR	49	0	2
SCL	49	0	2	96	48	7
TAP	49	96	4
STR	49	144	5
SCR	49	144	5	96	48	0
STR	49	240	4
SXL	49	240	4	96	240	7
STR	49	288	3
SXR	49	288	3	96	192	0
XTP	50	288	1
XTP	50	288	6
HLD	51	0	4	96
HLD	51	0	6	96
HLD	51	144	1	96
HLD	51	144	3	96
HLD	51	288	3	96
STR	51	288	6
SUL	51	288	6	96	192	3
TTP	52	192	0	C	1	M1
STR	53	0	5
SCR	53	0	5	96	48	0
TAP	53	96	3
STR	53	144	2
SCL	53	144	2	96	48	7
STR	53	240	3
SXR	53	240	3	96	240	0
STR	53	288	4
SXL	53	288	4	96	192	7
XTP	54	288	1
XTP	54	288	6
TAP	55	0	2
TAP	55	0	3
TAP	55	48	4
TAP	55	96	0
TAP	55	96	5
TAP	55	144	1
TAP	55	144	6
HLD	55	192	2	96
TAP	55	192	7
TAP	55	288	6
TAP	55	336	1
TAP	55	336	5
TAP	56	0	0
TAP	56	0	4
STR	56	48	3
SCR	56	48	3	96	96	7
STR	56	48	7
SCR	56	48	7	96	96	3
STR	56	144	3
SLR	56	144	3	96	96	1
STR	56	144	7
SLR	56	144	7	96	96	5
BRK	57	0	3
BRK	57	0	7
TAP	57	96	2
TAP	57	96	4
STR	57	144	1
SI_	57	144	1	96	48	4
TAP	57	168	3
TAP	57	192	1
TAP	57	216	3
TAP	57	240	1
TAP	57	288	6
TAP	57	336	6
STR	58	0	0
SCL	58	0	0	96	48	5
TAP	58	48	0
STR	58	96	4
SI_	58	96	4	96	48	0
TAP	58	144	4
STR	58	192	0
SCL	58	192	0	96	48	5
SCR	58	192	0	96	48	3
XTP	59	0	2
XTP	59	0	6
TAP	59	96	3
TAP	59	96	5
STR	59	144	6
SI_	59	144	6	96	48	3
TAP	59	168	4
TAP	59	192	6
TAP	59	216	4
TAP	59	240	6
STR	59	288	0
SI_	59	288	0	96	48	4
TAP	59	336	0
STR	60	0	5
SI_	60	0	5	96	48	0
TAP	60	48	5
STR	60	96	3
SCL	60	96	3	96	48	0
TAP	60	144	3
HLD	60	192	4	96
BRK	60	288	0
TAP	61	0	1
TAP	61	0	6
TAP	61	48	2
TAP	61	48	6
TAP	61	96	3
TAP	61	96	6
TAP	61	144	5
TAP	61	168	4
TAP	61	192	5
TAP	61	240	3
TAP	61	240	6
TAP	61	288	2
TAP	61	312	3
TAP	61	336	2
TAP	62	0	1
TAP	62	0	4
TAP	62	48	1
TAP	62	72	0
TAP	62	96	1
TAP	62	144	2
TAP	62	144	6
STR	62	192	3
SF_	62	192	3	96	48	7
TAP	62	192	5
XTP	63	0	1
XTP	63	0	5
TAP	63	48	0
TAP	63	96	5
TAP	63	120	4
TAP	63	144	6
TAP	63	192	2
TAP	63	216	3
TAP	63	240	1
STR	63	288	7
SCL	63	288	7	96	192	1
TAP	63	312	0
TAP	63	336	7
TAP	63	360	0
TAP	64	0	7
TAP	64	48	1
TAP	64	96	1
TAP	64	144	0
STR	64	192	0
SV_	64	192	0	96	48	3
SV_	64	192	0	96	48	5
TAP	64	288	0
BRK	65	0	2
BRK	65	0	6
XTP	66	192	3
XTP	66	192	4
STR	67	0	5
SCL	67	0	5	96	288	2
HLD	68	0	1	384
TAP	68	192	0
TAP	68	288	0
STR	69	0	0
SCL	69	0	0	96	288	5
HLD	70	0	3	384
TTP	70	192	4	E	0	M1
TTP	70	288	0	C	0	M1
STR	71	0	7
SCL	71	0	7	96	288	4
TTP	71	192	0	E	0	M1
TTP	71	288	0	C	0	M1
STR	72	0	3
SCL	72	0	3	96	288	0
TTP	72	192	4	E	0	M1
TTP	72	288	0	C	0	M1
HLD	73	0	7	240
HLD	73	144	0	96
TAP	73	288	0
TAP	73	288	7
BRK	74	0	2
TAP	74	24	5
TAP	74	48	4
TAP	74	72	5
TAP	74	96	4
TAP	74	120	5
BRK	74	144	1
TAP	74	168	7
TAP	74	192	0
TAP	74	216	7
TAP	74	240	0
TAP	74	264	7
BRK	74	288	1
BRK	74	288	6
STR	75	0	0
SSL	75	0	0	96	48	4
TAP	75	0	4
TAP	75	96	5
STR	75	144	6
SI_	75	144	6	96	48	2
TAP	75	240	3
STR	75	288	1
SLL	75	288	1	96	96	5
STR	76	0	5
SLL	76	0	5	96	96	1
TAP	76	96	1
TAP	76	192	7
TAP	76	288	1
TAP	76	288	5
TAP	77	0	3
STR	77	0	7
SSR	77	0	7	96	48	3
TAP	77	96	2
STR	77	144	1
SSR	77	144	1	96	48	5
STR	77	240	5
SCR	77	240	5	96	144	3
TTP	77	336	0	C	1	M1
XTP	78	96	7
TAP	78	192	0
TAP	78	192	1
TAP	78	240	2
TAP	78	240	7
XTP	78	288	3
XTP	78	288	6
TAP	79	0	0
STR	79	0	6
SI_	79	0	6	96	48	3
TAP	79	96	3
STR	79	144	2
SI_	79	144	2	96	48	6
TAP	79	240	3
STR	79	288	4
SCR	79	288	4	96	48	7
TAP	80	0	0
BRK	80	48	1
TAP	80	144	0
TAP	80	144	1
TAP	80	192	2
TAP	80	240	3
TAP	80	240	4
TAP	80	288	5
TAP	80	336	0
TAP	80	336	6
HLD	81	0	1	96
TAP	81	0	7
TAP	81	96	0
TAP	81	144	2
TAP	81	144	7
TAP	81	192	3
TAP	81	192	6
TAP	81	288	2
TAP	81	312	3
TAP	81	336	2
XTP	82	0	1
XTP	82	0	4
TAP	82	96	0
TAP	82	96	1
XTP	82	144	2
XTP	82	144	7
TAP	82	240	3
TAP	82	240	4
BRK	82	288	1
BRK	82	288	6
STR	83	0	5
SI_	83	0	5	96	48	0
TAP	83	96	3
STR	83	144	2
SI_	83	144	2	96	48	7
STR	83	240	3
SSR	83	240	3	96	240	7
STR	83	288	4
SSL	83	288	4	96	192	0
XTP	84	288	1
XTP	84	288	6
HLD	85	0	1	96
TAP	85	0	3
TAP	85	96	5
TAP	85	144	4
HLD	85	144	6	96
TAP	85	240	2
STR	85	288	1
SUR	85	288	1	96	192	4
HLD	85	288	4	96
TTP	86	192	0	C	1	M1
STR	87	0	2
SI_	87	0	2	96	48	7
TAP	87	96	4
STR	87	144	5
SI_	87	144	5	96	48	0
STR	87	240	4
SSL	87	240	4	96	240	0
STR	87	288	3
SSR	87	288	3	96	192	7
XTP	88	288	1
XTP	88	288	6
TAP	89	0	2
TAP	89	0	3
TAP	89	48	4
TAP	89	96	0
TAP	89	96	5
TAP	89	144	1
TAP	89	144	6
HLD	89	192	2	96
TAP	89	192	7
TAP	89	288	6
TAP	89	336	1
TAP	89	336	5
TAP	90	0	0
TAP	90	0	4
STR	90	48	3
SLR	90	48	3	96	96	7
STR	90	48	7
SLR	90	48	7	96	96	3
STR	90	144	3
SLR	90	144	3	96	96	1
STR	90	144	7
SLR	90	144	7	96	96	5
XHO	91	0	3	384
BRK	91	0	7
TAP	92	0	7
TAP	92	24	1
TAP	92	48	7
TAP	92	72	1
TAP	92	96	6
TAP	92	120	2
TAP	92	144	5
TAP	92	168	3
TAP	92	192	4
TAP	92	216	2
TAP	92	240	4
TAP	92	264	2
STR	92	288	7
SF_	92	288	7	96	48	3
BRK	93	0	7
TAP	93	96	1
TAP	93	96	5
STR	93	144	6
SI_	93	144	6	96	48	3
TAP	93	168	4
TAP	93	192	6
TAP	93	216	4
TAP	93	240	6
XTP	93	288	0
XTP	93	336	0
TAP	94	0	0
TAP	94	24	1
TAP	94	48	7
TAP	94	72	6
TAP	94	96	1
TAP	94	120	2
TAP	94	144	6
TAP	94	168	5
TAP	94	192	2
TAP	94	216	3
TAP	94	240	5
TAP	94	264	4
BRK	94	288	0
TAP	95	0	2
TAP	95	0	5
TAP	95	48	1
TAP	95	48	5
TAP	95	96	0
TAP	95	96	5
TAP	95	144	6
TAP	95	168	7
TAP	95	192	6
TAP	95	216	7
TAP	95	240	5
TAP	95	288	1
TAP	95	312	0
TAP	95	336	1
TAP	95	360	0
TAP	96	0	2
TAP	96	48	2
TAP	96	48	4
TAP	96	96	3
TAP	96	96	5
TAP	96	144	6
STR	96	192	0
SF_	96	192	0	96	48	4
TAP	96	192	7
BRK	96	288	0
XTP	97	0	2
XTP	97	0	6
TAP	97	48	3
TAP	97	96	6
TAP	97	120	7
TAP	97	144	5
TAP	97	192	1
TAP	97	216	0
TAP	97	240	2
TAP	97	288	4
TAP	97	312	3
TAP	97	336	4
TAP	97	360	3
TTP	98	0	5	B	0	M1
TTP	98	0	6	E	0	M1
TTP	98	48	1	B	0	M1
TTP	98	48	2	E	0	M1
TTP	98	96	0	E	0	M1
TTP	98	96	7	B	0	M1
TTP	98	144	3	B	0	M1
TTP	98	144	4	E	0	M1
TTP	98	192	6	B	0	M1
TTP	98	216	0	B	0	M1
TTP	98	240	4	B	0	M1
TTP	98	264	2	B	0	M1
TTP	98	288	7	B	0	M1
TTP	98	312	1	B	0	M1
TTP	98	336	5	B	0	M1
TTP	98	360	0	C	0	M1
TTP	98	360	3	B	0	M1

T_REC_TAP	346
T_REC_BRK	24
T_REC_XTP	42
T_REC_HLD	32
T_REC_XHO	1
T_REC_STR	84
T_REC_BST	0
T_REC_XST	0
T_REC_TTP	52
T_REC_THO	1
T_REC_SLD	87
T_REC_ALL	669
T_NUM_TAP	524
T_NUM_BRK	24
T_NUM_HLD	34
T_NUM_SLD	87
T_NUM_ALL	669
T_JUDGE_TAP	548
T_JUDGE_HLD	229
T_JUDGE_SLD	87
T_JUDGE_ALL	864
TTM_EACHPAIRS	126
TTM_SCR_TAP	262000
TTM_SCR_BRK	62400
TTM_SCR_HLD	34000
TTM_SCR_SLD	130500
TTM_SCR_ALL	488900
TTM_SCR_S	471950
TTM_SCR_SS	486500
TTM_RAT_ACV	10049

