VERSION	0.00.00	1.03.00
FES_MODE	0
BPM_DEF	174.000	174.000	174.000	174.000
MET_DEF	4	4
RESOLUTION	384
CLK_DEF	384
COMPATIBLE_CODE	MA2

BPM	0	0	174.000
MET	0	0	4	4

HLD	1	0	0	2592
TAP	5	0	4
TAP	5	96	4
TAP	5	192	4
TAP	5	288	4
TAP	6	0	4
TAP	6	96	4
TAP	6	192	4
TAP	6	288	4
TAP	7	0	4
TAP	7	96	4
TAP	7	192	4
STR	7	288	4
SUL	7	288	4	96	192	3
TAP	9	0	4
TAP	9	96	4
TAP	9	192	3
TAP	9	192	4
STR	9	288	3
SI_	9	288	3	96	96	0
TAP	9	288	4
TAP	10	0	4
TAP	10	96	4
TAP	10	192	0
TAP	10	192	4
STR	10	288	0
SI_	10	288	0	96	96	3
TAP	10	288	4
TAP	11	0	4
TAP	11	96	4
TAP	11	192	4
STR	11	288	3
SXR	11	288	3	96	192	2
TAP	11	288	4
TAP	12	0	4
TAP	12	96	4
TAP	12	192	4
TAP	12	288	4
TAP	13	0	3
TAP	13	96	3
TAP	13	192	3
TAP	13	192	4
TAP	13	288	3
STR	13	288	4
SI_	13	288	4	96	96	7
TAP	14	0	3
TAP	14	96	3
TAP	14	192	3
TAP	14	192	7
TAP	14	288	3
STR	14	288	7
SI_	14	288	7	96	96	4
TAP	15	0	3
TAP	15	96	3
TAP	15	192	3
TAP	15	288	3
STR	15	288	4
SXL	15	288	4	96	192	5
TAP	16	0	3
TAP	16	96	3
TAP	16	192	3
TAP	16	288	3
TAP	17	0	4
TAP	17	96	4
HLD	17	192	4	96
TAP	17	240	3
TAP	17	288	3
TAP	18	0	2
TAP	18	96	2
HLD	18	192	2	96
TAP	18	240	3
TAP	18	288	3
TAP	19	0	5
TAP	19	96	5
HLD	19	192	5	96
TAP	19	240	4
TAP	19	288	4
TAP	20	0	3
TAP	20	96	3
HLD	20	192	3	96
TAP	20	240	4
TAP	20	288	4
TAP	21	0	6
TAP	21	96	6
HLD	21	192	6	96
TAP	21	240	4
TAP	21	288	4
TAP	22	0	1
TAP	22	96	1
HLD	22	192	1	96
TAP	22	240	3
TAP	22	288	3
TAP	23	0	3
TAP	23	0	5
TAP	23	96	2
TAP	23	96	4
TAP	23	192	3
TAP	23	192	6
TAP	23	288	1
TAP	23	288	4
TAP	24	0	2
TAP	24	48	2
TAP	24	96	5
TAP	24	144	5
TAP	24	192	3
TAP	24	216	4
TAP	24	240	3
TAP	24	264	4
BRK	24	288	2
STR	25	0	4
SCR	25	0	4	96	144	7
STR	26	0	3
SCL	26	0	3	96	144	0
STR	27	0	4
SCR	27	0	4	96	144	7
TTP	28	0	3	B	0	M1
TTP	28	0	4	B	0	M1
TTP	28	192	0	B	0	M1
TTP	28	192	7	B	0	M1
STR	29	0	3
SCL	29	0	3	96	144	0
STR	30	0	4
SCR	30	0	4	96	144	7
HLD	31	0	2	192
HLD	31	192	0	192
HLD	32	0	7	192
TAP	32	192	5
TAP	32	288	3
TAP	32	288	4
TAP	33	0	2
HLD	33	0	6	240
TAP	33	96	4
TAP	33	144	4
TAP	33	240	7
TAP	33	288	7
TAP	34	0	4
TAP	34	0	5
TAP	34	96	3
TAP	34	96	6
TAP	34	144	2
TAP	34	192	2
TAP	34	192	3
TAP	34	288	2
TAP	34	288	4
HLD	35	0	1	240
TAP	35	0	5
TAP	35	96	3
TAP	35	144	3
TAP	35	240	0
TAP	35	288	0
TAP	36	0	2
TAP	36	0	3
TAP	36	96	1
TAP	36	96	4
TAP	36	144	5
TAP	36	192	4
TAP	36	192	5
STR	36	288	3
SUL	36	288	3	96	192	1
TAP	36	288	5
HLD	37	0	4	288
STR	37	288	3
SCL	37	288	3	96	96	0
TAP	38	144	6
HLD	38	192	6	96
HLD	38	288	4	96
HLD	39	0	3	96
TAP	39	96	0
TAP	39	144	0
STR	39	240	7
SCL	39	240	7	96	192	0
TAP	40	288	3
TAP	40	288	4
HLD	41	0	1	240
TAP	41	0	5
TAP	41	96	3
TAP	41	144	3
TAP	41	240	0
TAP	41	288	0
TAP	42	0	2
TAP	42	0	3
TAP	42	96	1
TAP	42	96	4
TAP	42	144	5
TAP	42	192	4
TAP	42	192	5
TAP	42	288	3
TAP	42	288	5
TAP	43	0	2
HLD	43	0	6	240
TAP	43	96	4
TAP	43	144	4
STR	43	240	7
SCR	43	240	7	96	96	2
TAP	44	144	2
TAP	44	192	2
TAP	44	288	3
TAP	44	288	5
HLD	45	0	6	96
TAP	45	96	4
TAP	45	144	4
TAP	45	240	1
HLD	45	288	1	96
TAP	46	0	3
TAP	46	48	3
TAP	46	144	6
HLD	46	192	6	96
STR	46	288	4
SCL	46	288	4	96	96	1
TAP	47	144	7
TAP	47	192	7
TAP	47	336	1
TAP	47	336	6
STR	48	0	1
SLR	48	0	1	96	192	7
STR	48	0	6
SLL	48	0	6	96	192	0
HLD	49	0	0	96
HLD	49	0	7	96
HLD	49	144	3	96
HLD	49	144	5	96
THO	49	288	0	192	C	0	M1
TTP	49	288	2	B	0	M1
TTP	49	288	3	B	0	M1
TTP	49	288	6	B	0	M1
TTP	49	288	7	B	0	M1
XST	51	0	7
SCL	51	0	7	96	96	4
XST	51	192	0
SCR	51	192	0	96	96	3
TAP	52	0	6
TAP	52	48	6
HLD	52	96	6	96
TAP	52	192	4
TAP	52	288	2
TAP	52	288	5
HLD	53	0	0	96
HLD	53	0	7	96
HLD	53	144	2	96
HLD	53	144	4	96
TTP	53	288	0	B	0	M1
THO	53	288	0	192	C	0	M1
TTP	53	288	1	B	0	M1
TTP	53	288	4	B	0	M1
TTP	53	288	5	B	0	M1
TAP	54	288	0
TAP	54	288	7
STR	55	0	0
SCR	55	0	0	96	96	3
TAP	55	0	7
STR	55	192	7
SCL	55	192	7	96	96	4
TAP	56	0	0
TAP	56	48	0
TAP	56	96	7
TAP	56	144	7
TAP	56	240	2
TAP	56	240	5
TAP	56	288	2
TAP	56	288	5
HLD	57	0	6	96
TAP	57	96	4
TAP	57	144	4
TAP	57	192	7
TAP	57	240	7
TAP	57	288	0
TAP	57	336	0
HLD	58	0	3	96
TAP	58	96	2
TAP	58	144	2
TAP	58	144	3
STR	58	192	1
SI_	58	192	1	96	96	5
TAP	58	192	4
HLD	59	0	6	96
HLD	59	96	4	96
HLD	59	192	3	96
TAP	59	288	1
TAP	59	336	1
TAP	60	0	7
TAP	60	48	7
TAP	60	96	4
TAP	60	144	4
TAP	60	192	5
BRK	60	288	2
BRK	60	288	6
HLD	61	0	1	96
TAP	61	96	3
TAP	61	144	3
TAP	61	192	0
TAP	61	240	0
TAP	61	288	7
TAP	61	336	7
HLD	62	0	4	96
TAP	62	96	5
TAP	62	144	4
TAP	62	144	5
TAP	62	192	3
STR	62	192	6
SI_	62	192	6	96	96	2
HLD	63	0	1	96
HLD	63	96	3	96
HLD	63	192	4	96
HLD	63	288	6	96
TAP	64	0	0
TAP	64	48	0
TAP	64	96	3
TAP	64	144	3
TAP	64	192	2
TAP	64	240	2
TAP	64	288	5
TAP	64	336	5
THO	65	0	0	576	C	0	M1
HLD	67	0	0	288
TAP	67	96	4
TAP	67	192	4
TAP	67	288	4
HLD	68	0	2	288
TAP	68	0	4
TAP	68	96	4
TAP	68	192	4
TAP	68	288	4
HLD	69	0	1	288
TAP	69	0	4
TAP	69	96	4
TAP	69	192	4
TAP	69	288	4
HLD	70	0	3	96
TAP	70	0	4
TAP	70	96	4
TAP	70	192	1
TAP	70	192	4
TAP	70	288	2
HLD	71	0	7	288
TAP	71	96	3
TAP	71	192	3
TAP	71	288	3
TAP	72	0	3
HLD	72	0	5	288
TAP	72	96	3
TAP	72	192	3
TAP	72	288	3
TAP	73	0	3
HLD	73	0	6	288
TAP	73	96	3
TAP	73	192	3
TAP	73	288	3
TAP	74	0	2
TAP	74	48	2
TAP	74	96	3
TAP	74	144	1
TAP	74	192	5
TAP	74	240	5
XTP	74	288	3
XTP	74	288	4
TAP	75	0	2
HLD	75	0	6	240
TAP	75	96	4
TAP	75	144	4
TAP	75	240	7
TAP	75	288	7
TAP	76	0	4
TAP	76	0	5
TAP	76	96	3
TAP	76	96	6
TAP	76	144	2
TAP	76	192	2
TAP	76	192	3
TAP	76	288	2
TAP	76	288	4
HLD	77	0	1	240
TAP	77	0	5
TAP	77	96	3
TAP	77	144	3
STR	77	240	0
SCL	77	240	0	96	96	5
TAP	78	144	5
TAP	78	192	5
TAP	78	288	2
TAP	78	288	4
HLD	79	0	1	96
TAP	79	96	3
TAP	79	144	3
TAP	79	240	6
HLD	79	288	6	96
TAP	80	0	4
TAP	80	48	4
TAP	80	144	1
HLD	80	192	1	96
STR	80	288	3
SCR	80	288	3	96	96	6
TAP	81	144	0
TAP	81	192	0
TAP	81	336	1
TAP	81	336	6
STR	82	0	1
SLR	82	0	1	96	192	0
STR	82	0	6
SLL	82	0	6	96	192	7
HLD	83	0	0	96
HLD	83	0	7	96
HLD	83	144	2	96
HLD	83	144	4	96
TTP	83	288	0	B	0	M1
THO	83	288	0	192	C	0	M1
TTP	83	288	1	B	0	M1
TTP	83	288	4	B	0	M1
TTP	83	288	5	B	0	M1
XST	85	0	0
SCR	85	0	0	96	96	3
XST	85	192	7
SCL	85	192	7	96	96	4
TAP	86	0	1
TAP	86	48	1
HLD	86	96	1	96
TAP	86	192	3
TAP	86	288	2
TAP	86	288	5
HLD	87	0	0	96
HLD	87	0	7	96
HLD	87	144	3	96
HLD	87	144	5	96
THO	87	288	0	192	C	0	M1
TTP	87	288	2	B	0	M1
TTP	87	288	3	B	0	M1
TTP	87	288	6	B	0	M1
TTP	87	288	7	B	0	M1
TAP	88	288	0
TAP	88	288	7
TAP	89	0	0
STR	89	0	7
SCL	89	0	7	96	96	4
STR	89	192	0
SCR	89	192	0	96	96	3
TAP	90	0	7
TAP	90	48	7
TAP	90	96	0
TAP	90	144	0
TAP	90	240	2
TAP	90	240	5
TAP	90	288	2
HLD	90	288	5	480
TTP	91	0	0	C	1	M1
STR	92	0	0
SCR	92	0	0	96	192	5
BRK	92	288	7
STR	93	0	4
SI_	93	0	4	96	96	1
HLD	93	0	6	96
TAP	93	192	7
TAP	93	240	7
STR	93	288	0
SUL	93	288	0	96	192	7
TTP	94	288	0	C	0	M1
TAP	95	0	0
HLD	95	96	1	96
STR	95	96	3
SI_	95	96	3	96	96	6
TAP	95	288	0
TAP	95	336	0
TAP	96	0	7
TAP	96	48	7
STR	96	96	4
SUL	96	96	4	96	192	2
TAP	97	0	7
TAP	97	48	7
TAP	97	96	0
TAP	97	96	7
TAP	97	144	0
TAP	97	144	7
TAP	97	192	1
TAP	97	240	1
TAP	97	288	1
TAP	97	288	5
TAP	97	336	1
TAP	97	336	5
TAP	98	0	4
TAP	98	48	4
TAP	98	96	2
TAP	98	96	4
TAP	98	144	2
TAP	98	144	4
TAP	98	192	3
TAP	98	216	4
TAP	98	240	3
TAP	98	264	4
TAP	98	288	2
TAP	98	312	5
BRK	98	336	3

T_REC_TAP	314
T_REC_BRK	5
T_REC_XTP	2
T_REC_HLD	65
T_REC_XHO	0
T_REC_STR	34
T_REC_BST	0
T_REC_XST	4
T_REC_TTP	22
T_REC_THO	5
T_REC_SLD	38
T_REC_ALL	489
T_NUM_TAP	376
T_NUM_BRK	5
T_NUM_HLD	70
T_NUM_SLD	38
T_NUM_ALL	489
T_JUDGE_TAP	381
T_JUDGE_HLD	270
T_JUDGE_SLD	38
T_JUDGE_ALL	689
TTM_EACHPAIRS	82
TTM_SCR_TAP	188000
TTM_SCR_BRK	13000
TTM_SCR_HLD	70000
TTM_SCR_SLD	57000
TTM_SCR_ALL	328000
TTM_SCR_S	317700
TTM_SCR_SS	327500
TTM_RAT_ACV	10015

