VERSION	0.00.00	1.03.00
FES_MODE	0
BPM_DEF	174.000	174.000	174.000	174.000
MET_DEF	4	4
RESOLUTION	384
CLK_DEF	384
COMPATIBLE_CODE	MA2

BPM	0	0	174.000
MET	0	0	4	4

STR	1	0	3
SCL	1	0	3	96	1056	4
STR	5	0	4
SCR	5	0	4	96	1056	3
HLD	9	0	5	384
HLD	10	0	4	384
HLD	11	0	3	384
TAP	12	0	2
HLD	13	0	1	384
HLD	14	0	0	384
HLD	15	0	7	384
TAP	16	0	6
HLD	17	0	5	192
TAP	17	192	4
HLD	18	0	2	192
TAP	18	192	3
HLD	19	0	5	192
TAP	19	192	4
HLD	20	0	3	192
HLD	20	0	4	192
HLD	21	0	1	192
TAP	21	192	0
HLD	22	0	6	192
TAP	22	192	7
HLD	23	0	0	192
HLD	23	192	7	192
TAP	24	0	0
XTP	24	192	1
XTP	24	192	6
TTP	25	0	2	B	0	L1
TTP	25	0	2	E	0	L1
TTP	26	0	5	B	0	L1
TTP	26	0	6	E	0	L1
TTP	27	0	1	B	0	L1
TTP	27	0	2	B	0	L1
TTP	28	0	4	B	0	L1
TTP	28	0	5	B	0	L1
TTP	29	0	2	B	0	L1
TTP	29	0	3	B	0	L1
TTP	30	0	5	B	0	L1
TTP	30	0	6	B	0	L1
TTP	31	0	1	E	0	L1
TTP	31	0	7	E	0	L1
TTP	32	0	0	C	1	L1
TAP	33	0	0
TAP	33	96	0
TAP	33	192	1
TAP	33	288	1
HLD	34	0	2	192
TAP	34	96	3
TAP	34	192	3
TAP	35	0	4
TAP	35	96	4
TAP	35	192	5
TAP	35	288	5
HLD	36	0	6	192
TAP	36	96	7
TAP	36	192	7
HLD	37	0	1	192
TAP	37	96	0
TAP	37	192	7
HLD	38	0	6	192
TAP	38	96	7
TAP	38	192	0
TAP	39	0	5
TAP	39	96	4
TAP	39	96	5
TAP	39	192	2
TAP	39	288	2
TAP	39	288	3
TAP	40	0	4
TAP	40	96	3
TAP	40	96	4
XTP	40	192	2
XTP	40	192	5
TAP	41	0	4
TAP	41	96	4
TAP	41	192	5
TAP	41	288	5
HLD	42	0	6	192
TAP	42	96	7
TAP	42	192	7
TAP	43	0	0
TAP	43	96	0
TAP	43	192	1
TAP	43	288	1
TAP	44	0	2
TAP	44	96	2
TAP	44	96	3
TAP	44	192	1
TAP	44	192	4
HLD	45	0	4	96
HLD	45	0	5	96
TAP	45	192	4
TAP	45	192	5
HLD	46	0	2	96
HLD	46	0	3	96
TAP	46	192	2
TAP	46	192	3
TAP	47	0	1
TAP	47	96	1
TAP	47	192	0
TAP	47	288	7
HLD	48	0	0	96
HLD	48	0	7	96
XTP	48	192	1
XTP	48	192	6
STR	49	0	6
SLL	49	0	6	96	480	0
STR	51	0	1
SLR	51	0	1	96	480	7
STR	53	0	6
SCL	53	0	6	96	480	1
STR	55	0	0
SI_	55	0	0	96	288	3
STR	55	0	7
SI_	55	0	7	96	288	4
XTP	56	192	2
XTP	56	192	5
TAP	57	0	1
TAP	57	96	1
TAP	57	192	2
TAP	57	192	4
TAP	57	288	2
TAP	57	288	4
TAP	58	0	3
TAP	58	48	3
TAP	58	96	3
TAP	58	192	3
TAP	58	192	4
TAP	59	0	5
TAP	59	96	5
TAP	59	192	0
TAP	59	192	6
TAP	59	288	0
TAP	59	288	6
TAP	60	0	7
TAP	60	48	7
TAP	60	96	7
XTP	60	192	1
XTP	60	192	6
TAP	61	0	0
TAP	61	0	7
TAP	61	96	6
TAP	61	192	5
TAP	61	240	5
TAP	61	288	5
TAP	62	0	4
TAP	62	0	5
TAP	62	96	3
TAP	62	96	4
TAP	62	192	2
TAP	62	192	5
TAP	63	0	3
TAP	63	0	4
TAP	63	96	2
TAP	63	192	1
TAP	63	240	1
TAP	63	288	1
TAP	64	0	0
TAP	64	0	7
TAP	64	96	0
TAP	64	96	7
TAP	64	192	1
TAP	64	192	6
THO	65	0	0	576	C	0	L1
TTP	67	0	7	E	0	L1
TTP	67	192	0	C	0	L1
TTP	68	0	3	E	0	L1
TTP	69	0	1	E	0	L1
TTP	69	192	0	C	0	L1
TTP	70	0	5	E	0	L1
TTP	71	0	5	E	0	L1
TTP	71	96	5	B	0	L1
TTP	71	192	6	B	0	L1
TTP	72	0	3	E	0	L1
TTP	72	96	2	B	0	L1
TTP	72	192	1	B	0	L1
TTP	73	0	0	B	0	L1
TTP	73	0	7	B	0	L1
TTP	73	192	1	B	0	L1
TTP	73	192	6	B	0	L1
TTP	74	0	0	C	1	L1
XTP	75	0	0
XTP	75	0	7
XTP	75	96	0
XTP	75	96	7
TAP	75	192	1
TAP	75	288	2
TAP	76	0	2
TAP	76	0	3
TAP	76	96	2
TAP	76	96	3
TAP	76	192	1
TAP	76	192	4
TAP	77	0	3
TAP	77	0	4
TAP	77	96	3
TAP	77	96	4
TAP	77	192	5
TAP	77	288	6
TAP	78	0	6
TAP	78	0	7
TAP	78	96	6
TAP	78	96	7
TAP	78	192	0
TAP	78	192	5
HLD	79	0	1	192
TAP	79	96	0
TAP	79	192	7
HLD	80	0	6	192
TAP	80	96	7
TAP	80	192	0
TAP	81	0	5
TAP	81	96	5
TAP	81	192	4
TAP	81	288	3
HLD	82	0	3	96
HLD	82	0	4	96
TAP	82	192	2
TAP	82	192	5
STR	83	0	1
SLR	83	0	1	96	480	7
STR	85	0	6
SLL	85	0	6	96	480	0
STR	87	0	1
SLR	87	0	1	96	480	6
STR	89	0	7
SI_	89	0	7	96	288	2
SI_	89	0	7	96	288	4
XHO	90	192	3	192
BRK	91	0	4
TAP	92	0	3
TAP	92	0	4
TAP	92	96	2
TAP	92	96	5
XTP	92	192	1
XTP	92	192	6
TAP	93	0	7
TAP	93	96	7
TAP	93	192	0
STR	93	288	0
SI_	93	288	0	96	192	4
STR	93	288	7
SI_	93	288	7	96	192	3
XTP	95	0	2
XTP	95	0	5
TAP	95	96	1
TAP	95	192	0
TAP	95	240	0
TAP	95	288	0
TAP	96	0	7
TAP	96	48	7
TAP	96	96	7
TAP	96	192	1
TAP	96	192	6
TAP	97	0	2
TAP	97	0	3
TAP	97	96	2
TAP	97	96	3
TAP	97	192	4
TAP	97	192	5
TAP	97	288	4
TAP	97	288	5
TAP	98	0	0
TAP	98	0	7
TAP	98	48	0
TAP	98	48	7
TAP	98	96	0
TAP	98	96	7
TAP	98	192	1
TAP	98	192	6
XTP	98	288	2
XTP	98	288	5
TAP	99	0	3
TAP	99	0	4

T_REC_TAP	164
T_REC_BRK	1
T_REC_XTP	20
T_REC_HLD	30
T_REC_XHO	1
T_REC_STR	13
T_REC_BST	0
T_REC_XST	0
T_REC_TTP	32
T_REC_THO	1
T_REC_SLD	14
T_REC_ALL	276
T_NUM_TAP	229
T_NUM_BRK	1
T_NUM_HLD	32
T_NUM_SLD	14
T_NUM_ALL	276
T_JUDGE_TAP	230
T_JUDGE_HLD	144
T_JUDGE_SLD	14
T_JUDGE_ALL	388
TTM_EACHPAIRS	58
TTM_SCR_TAP	114500
TTM_SCR_BRK	2600
TTM_SCR_HLD	32000
TTM_SCR_SLD	21000
TTM_SCR_ALL	170100
TTM_SCR_S	164900
TTM_SCR_SS	170000
TTM_RAT_ACV	10005

