VERSION	0.00.00	1.03.00
FES_MODE	0
BPM_DEF	174.000	174.000	174.000	174.000
MET_DEF	4	4
RESOLUTION	384
CLK_DEF	384
COMPATIBLE_CODE	MA2

BPM	0	0	174.000
MET	0	0	4	4

TAP	9	0	3
TAP	10	0	3
HLD	11	0	3	384
TAP	13	0	4
TAP	14	0	4
HLD	15	0	4	384
TAP	17	0	5
TAP	17	192	5
TAP	18	0	5
HLD	19	0	5	384
TAP	21	0	6
TAP	21	192	6
TAP	22	0	6
STR	23	0	6
SI_	23	0	6	96	288	2
TTP	25	0	1	B	0	L1
TTP	26	0	0	B	0	L1
TTP	27	0	7	B	0	L1
TTP	28	0	6	B	0	L1
TTP	29	0	5	B	0	L1
TTP	30	0	3	B	0	L1
TTP	30	0	4	B	0	L1
THO	31	0	0	384	C	1	L1
TAP	33	0	0
TAP	33	96	0
TAP	33	192	0
TAP	34	0	1
TAP	34	192	1
TAP	35	0	2
TAP	35	96	2
TAP	35	192	2
TAP	36	0	3
TAP	36	192	3
TAP	37	0	4
TAP	37	0	5
TAP	37	192	4
TAP	37	192	5
TAP	38	0	2
TAP	38	0	3
TAP	38	192	2
TAP	38	192	3
TAP	39	0	4
TAP	39	192	3
HLD	40	0	3	192
HLD	40	0	4	192
TAP	41	0	4
TAP	41	96	4
TAP	41	192	4
TAP	42	0	5
TAP	42	192	5
TAP	43	0	6
TAP	43	96	6
TAP	43	192	6
TAP	44	0	7
TAP	44	192	7
TAP	45	0	0
TAP	45	0	1
TAP	45	192	0
TAP	45	192	1
TAP	46	0	6
TAP	46	0	7
TAP	46	192	6
TAP	46	192	7
TAP	47	0	0
TAP	47	192	0
BRK	48	0	0
BRK	48	0	7
STR	49	0	0
SI_	49	0	0	96	288	3
TAP	51	0	7
TAP	51	192	7
TAP	52	0	0
TAP	52	0	7
STR	53	0	7
SI_	53	0	7	96	288	4
TAP	55	0	0
TAP	55	192	0
BRK	56	0	0
BRK	56	0	7
TTP	57	0	1	B	0	L1
TTP	58	0	2	B	0	L1
TTP	59	0	3	B	0	L1
TTP	60	0	4	B	0	L1
TTP	61	0	5	B	0	L1
TTP	62	0	6	B	0	L1
TTP	63	0	0	B	0	L1
TTP	63	0	7	B	0	L1
THO	64	0	0	336	C	0	L1
TAP	67	0	7
TAP	68	0	7
TAP	69	0	0
TAP	70	0	0
TAP	71	0	7
TAP	71	192	7
TAP	72	0	0
TAP	72	192	0
STR	73	0	7
SI_	73	0	7	96	288	3
HLD	75	0	2	288
HLD	75	0	3	288
XTP	76	192	4
HLD	77	0	4	336
HLD	77	0	5	336
XTP	78	192	3
TAP	79	0	2
TAP	79	96	2
TAP	79	192	2
TAP	80	0	1
TAP	80	96	1
TAP	80	192	1
TAP	81	0	0
TAP	81	96	0
TAP	81	192	0
TAP	81	192	7
HLD	82	0	0	192
HLD	82	0	7	192
STR	83	0	0
SI_	83	0	0	96	288	3
TAP	85	0	7
TAP	85	96	7
TAP	85	192	7
TAP	86	0	6
TAP	86	0	7
STR	87	0	7
SI_	87	0	7	96	288	4
TAP	89	0	0
TAP	89	96	0
TAP	89	192	0
BRK	90	0	0
BRK	90	0	1
XTP	91	0	7
STR	93	0	0
SI_	93	0	0	96	288	4
TAP	95	0	5
TAP	95	192	4
TAP	95	192	5
TAP	96	0	2
TAP	96	192	2
TAP	96	192	3
TAP	97	0	4
TAP	97	192	3
TAP	97	192	4
STR	98	0	3
SI_	98	0	3	96	288	0
STR	98	0	4
SI_	98	0	4	96	288	7

T_REC_TAP	91
T_REC_BRK	6
T_REC_XTP	3
T_REC_HLD	11
T_REC_XHO	0
T_REC_STR	9
T_REC_BST	0
T_REC_XST	0
T_REC_TTP	15
T_REC_THO	2
T_REC_SLD	9
T_REC_ALL	146
T_NUM_TAP	118
T_NUM_BRK	6
T_NUM_HLD	13
T_NUM_SLD	9
T_NUM_ALL	146
T_JUDGE_TAP	124
T_JUDGE_HLD	81
T_JUDGE_SLD	9
T_JUDGE_ALL	214
TTM_EACHPAIRS	22
TTM_SCR_TAP	59000
TTM_SCR_BRK	15600
TTM_SCR_HLD	13000
TTM_SCR_SLD	13500
TTM_SCR_ALL	101100
TTM_SCR_S	97500
TTM_SCR_SS	100500
TTM_RAT_ACV	10059

