VERSION	0.00.00	1.03.00
FES_MODE	0
BPM_DEF	204.000	204.000	204.000	204.000
MET_DEF	4	4
RESOLUTION	384
CLK_DEF	384
COMPATIBLE_CODE	MA2

BPM	0	0	204.000
MET	0	0	4	4

TAP	2	0	5
HLD	2	48	5	720
TAP	2	192	4
TAP	3	0	3
TAP	3	48	3
TAP	3	192	4
TAP	4	0	2
HLD	4	48	2	336
TAP	4	192	3
TAP	5	0	5
TAP	5	96	1
TAP	5	192	2
TAP	5	216	3
TAP	5	240	4
TAP	5	264	5
BRK	5	288	1
BRK	5	288	6
TAP	6	0	0
TAP	6	0	7
TAP	6	96	3
TAP	6	96	5
TAP	6	192	1
TAP	6	192	4
TAP	6	240	2
TAP	6	264	3
STR	6	288	1
SI_	6	288	1	96	48	4
STR	7	0	5
SI_	7	0	5	96	48	0
STR	7	96	2
SI_	7	96	2	96	48	7
TAP	7	192	5
TAP	7	240	5
TAP	7	288	4
TAP	7	336	3
TAP	7	336	6
TAP	8	48	4
TAP	8	96	2
TAP	8	144	5
TAP	8	192	3
TAP	8	240	6
TAP	8	288	4
TAP	8	336	7
TAP	9	0	3
TAP	9	0	6
TAP	9	48	5
TAP	9	96	2
TAP	9	144	1
TAP	9	144	4
TAP	9	192	2
TAP	9	240	5
XTP	9	288	1
XTP	9	288	6
TAP	10	0	0
TAP	10	0	7
TAP	10	96	2
TAP	10	96	4
TAP	10	192	3
TAP	10	192	6
TAP	10	240	5
TAP	10	264	4
STR	10	288	6
SI_	10	288	6	96	48	3
STR	11	0	2
SI_	11	0	2	96	48	7
STR	11	96	5
SI_	11	96	5	96	48	0
TAP	11	192	2
TAP	11	240	2
TAP	11	288	3
TAP	11	336	1
TAP	11	336	4
TAP	12	48	3
TAP	12	96	5
TAP	12	144	2
TAP	12	192	4
TAP	12	240	1
TAP	12	288	3
TAP	12	336	0
TAP	13	0	1
TAP	13	0	4
TAP	13	48	0
TAP	13	96	7
TAP	13	144	3
TAP	13	144	6
TAP	13	192	7
TAP	13	240	0
BRK	13	288	1
BRK	13	288	6
STR	14	0	5
SI_	14	0	5	96	48	7
TAP	14	96	4
STR	14	192	4
SI_	14	192	4	96	48	2
TAP	14	288	6
TAP	14	336	6
STR	15	0	5
SI_	15	0	5	96	48	7
TAP	15	96	4
STR	15	192	4
SI_	15	192	4	96	48	2
TAP	15	288	6
STR	16	0	7
SI_	16	0	7	96	48	4
STR	16	96	3
SI_	16	96	3	96	48	7
STR	16	192	5
SI_	16	192	5	96	48	2
TAP	16	288	0
TAP	16	336	0
TAP	17	48	2
TAP	17	48	4
TAP	17	96	2
TAP	17	96	4
TAP	17	144	5
TAP	17	192	4
STR	17	192	5
SI_	17	192	5	96	48	2
TAP	17	288	1
TAP	17	288	5
STR	18	0	0
SCR	18	0	0	96	48	3
TAP	18	96	5
STR	18	144	5
SCR	18	144	5	96	48	0
TAP	18	240	2
STR	18	288	2
SCR	18	288	2	96	48	5
TAP	19	0	6
STR	19	48	6
SCR	19	48	6	96	48	1
TAP	19	144	3
STR	19	192	3
SF_	19	192	3	96	48	7
TAP	19	288	3
TAP	20	48	7
TAP	20	96	7
TAP	20	144	0
STR	20	192	1
SI_	20	192	1	96	48	3
STR	20	192	4
SV_	20	192	4	96	48	7
TAP	20	288	1
TAP	20	288	4
TAP	21	0	5
STR	21	96	0
SI_	21	96	0	96	48	4
STR	21	96	6
SI_	21	96	6	96	48	3
TAP	21	192	0
TAP	21	192	6
BRK	21	288	1
BRK	21	288	5
STR	22	0	2
SI_	22	0	2	96	48	0
TAP	22	96	3
STR	22	192	3
SI_	22	192	3	96	48	5
TAP	22	288	1
TAP	22	336	1
STR	23	0	2
SI_	23	0	2	96	48	0
TAP	23	96	3
STR	23	192	3
SI_	23	192	3	96	48	5
TAP	23	288	1
STR	24	0	0
SI_	24	0	0	96	48	3
STR	24	96	4
SI_	24	96	4	96	48	0
STR	24	192	2
SI_	24	192	2	96	48	5
TAP	24	288	7
TAP	24	336	7
TAP	25	48	3
TAP	25	48	5
TAP	25	96	3
TAP	25	96	5
TAP	25	144	2
STR	25	192	2
SI_	25	192	2	96	48	5
TAP	25	192	3
TAP	25	288	2
TAP	25	288	6
STR	26	0	7
SCL	26	0	7	96	48	4
TAP	26	96	2
STR	26	144	2
SCL	26	144	2	96	48	7
TAP	26	240	5
STR	26	288	5
SCL	26	288	5	96	48	2
TAP	27	0	1
BST	27	48	1
SCL	27	48	1	96	48	6
TAP	27	144	4
STR	27	192	4
SF_	27	192	4	96	48	0
TAP	27	288	4
TAP	28	48	0
TAP	28	96	0
TAP	28	144	6
STR	28	192	4
SV_	28	192	4	96	48	1
STR	28	192	7
SI_	28	192	7	96	48	5
TAP	28	288	4
TAP	28	288	7
TAP	29	0	3
TAP	29	48	3
TAP	29	96	6
TAP	29	144	6
STR	29	192	4
SI_	29	192	4	96	48	1
STR	29	192	5
SI_	29	192	5	96	48	0
TAP	29	288	4
TAP	29	288	5
BRK	30	0	3
BRK	30	0	6
BRK	30	192	1
BRK	30	192	4
TAP	31	0	3
TAP	31	0	6
TAP	31	64	3
TAP	31	64	6
TAP	31	128	3
TAP	31	128	6
TAP	31	192	2
TAP	31	192	5
TAP	31	256	2
TAP	31	256	5
TAP	31	320	2
TAP	31	320	5
HLD	32	0	1	288
TAP	32	0	4
TTP	32	144	1	E	0	M1
TTP	32	160	1	B	0	M1
TTP	32	176	2	B	0	M1
TTP	32	192	3	E	0	M1
TAP	33	0	1
TAP	33	0	4
TAP	33	64	1
TAP	33	64	4
TAP	33	128	1
TAP	33	128	4
TAP	33	192	2
TAP	33	192	5
TAP	33	256	2
TAP	33	256	5
TAP	33	320	2
TAP	33	320	5
TAP	34	0	3
HLD	34	0	6	288
TTP	34	144	7	E	0	M1
TTP	34	160	6	B	0	M1
TTP	34	176	5	B	0	M1
TTP	34	192	5	E	0	M1
TAP	35	0	3
TAP	35	0	6
TAP	35	64	3
TAP	35	64	6
TAP	35	128	3
TAP	35	128	6
TAP	35	192	2
TAP	35	192	5
TAP	35	256	2
TAP	35	256	5
TAP	35	320	2
TAP	35	320	5
TAP	36	0	1
TAP	36	0	4
TAP	36	48	2
TAP	36	96	3
TAP	36	96	6
TAP	36	144	5
TAP	36	192	1
TAP	36	192	4
TAP	36	240	2
TAP	36	288	3
TAP	36	288	4
XTP	36	336	3
XTP	36	336	4
TAP	37	48	2
TAP	37	48	5
TAP	37	96	2
TAP	37	96	5
TAP	37	144	2
TAP	37	144	5
BRK	37	192	2
BRK	37	192	5
STR	37	288	0
SI_	37	288	0	96	48	5
STR	37	288	7
SI_	37	288	7	96	48	5
STR	38	0	0
SI_	38	0	0	96	48	2
STR	38	0	7
SI_	38	0	7	96	48	2
STR	38	96	0
SF_	38	96	0	96	48	4
TAP	38	96	7
TAP	38	192	0
XTP	38	288	2
XTP	38	288	6
STR	39	0	1
SI_	39	0	1	96	48	7
STR	39	48	5
SI_	39	48	5	96	48	3
XTP	39	96	1
XTP	39	144	5
XTP	39	240	0
XTP	39	288	0
XTP	39	288	4
STR	40	0	2
SCR	40	0	2	96	48	5
TAP	40	0	6
STR	40	96	7
SI_	40	96	7	96	48	2
STR	40	192	3
SI_	40	192	3	96	48	0
XTP	40	288	4
STR	41	48	1
SI_	41	48	1	96	48	4
STR	41	48	5
SI_	41	48	5	96	48	0
STR	41	96	0
SI_	41	96	0	96	48	5
STR	41	96	4
SI_	41	96	4	96	48	1
TTP	41	288	0	C	1	M1
STR	42	0	1
SI_	42	0	1	96	48	4
STR	42	0	7
SI_	42	0	7	96	48	3
TAP	42	96	1
TAP	42	96	7
TAP	42	192	2
TAP	42	192	6
TAP	42	288	0
STR	42	288	1
SSR	42	288	1	96	96	5
STR	43	0	5
SSR	43	0	5	96	96	1
XTP	43	240	7
XTP	43	288	3
XTP	43	288	7
TAP	44	0	1
STR	44	0	5
SCL	44	0	5	96	48	2
STR	44	96	0
SI_	44	96	0	96	48	3
SI_	44	96	0	96	48	5
TAP	44	192	0
XTP	44	288	2
XTP	44	288	6
BRK	45	0	1
BRK	45	0	7
XTP	45	16	6
XTP	45	32	5
XTP	45	48	4
BRK	45	144	0
BRK	45	144	6
XTP	45	160	1
XTP	45	176	2
XTP	45	192	3
BRK	45	288	1
BRK	45	288	5
STR	46	0	6
SI_	46	0	6	96	48	3
STR	46	0	7
SI_	46	0	7	96	48	2
TAP	46	96	6
TAP	46	96	7
STR	46	192	0
SI_	46	192	0	96	48	5
STR	46	192	1
SI_	46	192	1	96	48	4
TAP	46	288	0
TAP	46	288	1
STR	47	0	6
SI_	47	0	6	96	48	0
STR	47	48	2
SI_	47	48	2	96	48	4
XTP	47	96	6
XTP	47	144	2
XTP	47	240	7
XTP	47	288	3
XTP	47	288	7
TAP	48	0	1
STR	48	0	5
SCL	48	0	5	96	48	2
STR	48	96	0
SI_	48	96	0	96	48	5
STR	48	192	4
SI_	48	192	4	96	48	7
XTP	48	288	3
STR	49	48	2
SI_	49	48	2	96	48	7
STR	49	48	6
SI_	49	48	6	96	48	3
STR	49	96	3
SI_	49	96	3	96	48	6
STR	49	96	7
SI_	49	96	7	96	48	2
TTP	49	288	0	C	1	M1
STR	50	0	0
SI_	50	0	0	96	48	4
STR	50	0	6
SI_	50	0	6	96	48	3
TAP	50	96	0
TAP	50	96	6
TAP	50	192	1
TAP	50	192	5
STR	50	288	6
SSL	50	288	6	96	96	2
STR	51	0	2
SSL	51	0	2	96	96	6
XTP	51	240	0
XTP	51	288	0
XTP	51	288	4
STR	52	0	2
SCR	52	0	2	96	48	5
TAP	52	0	6
STR	52	96	7
SI_	52	96	7	96	48	2
SI_	52	96	7	96	48	4
TAP	52	192	7
XTP	52	288	1
XTP	52	288	5
BRK	53	0	0
BRK	53	0	6
XTP	53	16	1
XTP	53	32	2
XTP	53	48	3
BRK	53	144	1
BRK	53	144	7
TAP	53	192	1
STR	53	192	7
SXR	53	192	7	96	96	7
BRK	53	288	0
BST	53	288	7
SCR	53	288	7	96	288	7
TTP	54	0	0	C	1	M1
TAP	55	48	3
TAP	55	96	4
TAP	55	144	2
TAP	55	192	1
STR	55	192	3
SI_	55	192	3	96	48	0
HLD	55	288	2	96
TAP	55	288	3
TAP	56	0	7
TAP	56	96	3
TAP	56	96	5
TAP	56	192	2
TAP	56	192	4
TAP	56	288	1
TAP	56	288	5
TAP	56	336	1
TAP	56	336	5
TAP	57	48	4
TAP	57	96	3
TAP	57	144	5
STR	57	192	4
SI_	57	192	4	96	48	1
TAP	57	192	6
TAP	57	288	4
HLD	57	288	5	96
TAP	58	0	0
TAP	58	96	2
TAP	58	96	4
TAP	58	192	3
TAP	58	192	5
TAP	58	288	2
TAP	58	288	6
TAP	58	336	2
TAP	58	336	6
TAP	59	48	3
STR	59	96	3
SF_	59	96	3	96	48	7
TAP	59	288	2
TAP	59	288	5
BRK	60	0	1
BRK	60	0	4
BRK	60	192	3
BRK	60	192	6
TAP	60	336	2
TAP	60	336	4
TAP	61	48	3
TAP	61	48	4
TAP	61	96	2
TAP	61	96	5
TAP	61	144	0
TAP	61	144	7
BRK	61	192	1
BRK	61	192	6
XTP	61	288	3
XTP	61	288	4
XTP	61	336	3
XTP	61	336	4
TAP	62	48	0
TAP	62	48	5
TAP	62	96	1
TAP	62	144	2
TAP	62	192	3
TAP	62	192	6
TAP	62	240	5
TAP	62	264	4
STR	62	288	6
SI_	62	288	6	96	48	3
TAP	62	336	6
STR	63	0	2
SI_	63	0	2	96	48	7
TAP	63	48	2
STR	63	96	5
SI_	63	96	5	96	48	0
TAP	63	144	5
TAP	63	192	2
TAP	63	240	2
TAP	63	288	3
TAP	63	336	1
TAP	63	336	4
TAP	64	48	2
TAP	64	96	5
TAP	64	144	3
TAP	64	144	6
TAP	64	192	5
TAP	64	216	4
TAP	64	240	6
TAP	64	288	2
TAP	64	312	3
TAP	64	336	1
TAP	65	0	1
TAP	65	0	4
TAP	65	48	2
TAP	65	96	5
TAP	65	144	3
TAP	65	144	6
TAP	65	192	5
TAP	65	240	2
XTP	65	288	0
XTP	65	288	6
XTP	65	336	0
XTP	65	336	6
TAP	66	48	2
TAP	66	48	7
TAP	66	96	6
TAP	66	144	5
TAP	66	192	1
TAP	66	192	4
TAP	66	240	2
TAP	66	264	3
STR	66	288	1
SI_	66	288	1	96	48	4
TAP	66	336	1
STR	67	0	5
SI_	67	0	5	96	48	0
TAP	67	48	5
STR	67	96	2
SI_	67	96	2	96	48	7
TAP	67	144	2
TAP	67	192	5
TAP	67	240	5
TAP	67	288	4
TAP	67	336	3
TAP	67	336	6
TAP	68	48	5
TAP	68	96	2
TAP	68	144	1
TAP	68	144	4
TAP	68	192	2
TAP	68	216	3
TAP	68	240	1
TAP	68	288	5
TAP	68	312	4
TAP	68	336	6
TAP	69	0	3
TAP	69	0	6
TAP	69	48	7
TAP	69	96	0
TAP	69	144	1
TAP	69	144	4
TAP	69	192	0
TAP	69	240	7
BRK	69	288	1
BRK	69	288	6
BRK	69	336	1
BRK	69	336	6
TAP	70	48	5
HLD	70	96	5	96
TAP	70	144	3
HLD	70	192	2	96
TAP	70	240	4
HLD	70	288	5	96
TAP	70	336	4
HLD	71	0	2	96
TAP	71	48	3
HLD	71	96	5	96
TAP	71	144	3
HLD	71	192	2	96
TAP	71	240	3
TAP	71	288	3
HLD	72	0	4	144
TAP	72	0	5
TAP	72	48	5
TAP	72	96	5
TAP	72	144	5
TAP	72	288	2
HLD	72	288	3	144
TAP	72	336	2
TAP	73	0	2
TAP	73	48	2
TAP	73	144	4
TAP	73	168	3
TAP	73	192	4
XTP	73	288	1
XTP	73	288	6
HLD	74	0	5	144
TAP	74	96	4
HLD	74	144	2	144
TAP	74	240	3
HLD	74	288	5	144
TAP	75	0	4
HLD	75	48	2	144
TAP	75	144	3
STR	75	192	4
SI_	75	192	4	96	48	7
TAP	75	288	3
TAP	75	288	4
HLD	76	0	2	144
TAP	76	96	3
HLD	76	144	5	144
TAP	76	240	4
HLD	76	288	2	144
TAP	77	0	3
HLD	77	48	5	144
TAP	77	144	4
STR	77	192	3
SI_	77	192	3	96	48	0
TAP	77	288	3
TAP	77	288	4
HLD	78	0	6	144
TAP	78	96	4
HLD	78	144	1	144
TAP	78	240	3
HLD	78	288	6	144
TAP	79	0	4
HLD	79	48	1	144
TAP	79	144	3
STR	79	192	4
SI_	79	192	4	96	48	7
TAP	79	288	3
TAP	79	288	4
HLD	80	0	1	144
TAP	80	96	3
HLD	80	144	6	144
TAP	80	240	4
TAP	80	288	0
BRK	80	336	0
TAP	81	288	6
TAP	81	288	7
HLD	82	0	1	288
TAP	82	0	4
TTP	82	144	1	E	0	M1
TTP	82	160	0	B	0	M1
TTP	82	176	7	B	0	M1
TTP	82	192	7	E	0	M1
TAP	83	0	1
TAP	83	0	4
TAP	83	64	1
TAP	83	64	4
TAP	83	128	1
TAP	83	128	4
TAP	83	192	2
TAP	83	192	5
TAP	83	256	2
TAP	83	256	5
TAP	83	320	2
TAP	83	320	5
TAP	84	0	3
HLD	84	0	6	288
TTP	84	144	7	E	0	M1
TTP	84	160	7	B	0	M1
TTP	84	176	0	B	0	M1
TTP	84	192	1	E	0	M1
TAP	85	0	3
TAP	85	0	6
TAP	85	64	3
TAP	85	64	6
TAP	85	128	3
TAP	85	128	6
TAP	85	192	2
TAP	85	192	5
TAP	85	256	2
TAP	85	256	5
TAP	85	320	2
TAP	85	320	5
HLD	86	0	1	288
TAP	86	0	4
TTP	86	144	1	E	0	M1
TTP	86	160	0	B	0	M1
TTP	86	176	7	B	0	M1
TTP	86	192	7	E	0	M1
TAP	87	0	1
TAP	87	0	4
TAP	87	64	1
TAP	87	64	4
TAP	87	128	1
TAP	87	128	4
TAP	87	192	2
TAP	87	192	5
TAP	87	256	2
TAP	87	256	5
TAP	87	320	2
TAP	87	320	5
TAP	88	0	3
TAP	88	0	6
TAP	88	48	5
TAP	88	96	1
TAP	88	96	4
TAP	88	144	2
TAP	88	192	3
TAP	88	192	6
TAP	88	240	5
TAP	88	288	3
TAP	88	288	4
XTP	88	336	3
XTP	88	336	4
TAP	89	48	2
TAP	89	48	5
TAP	89	96	2
TAP	89	96	5
TAP	89	144	2
TAP	89	144	5
BRK	89	192	2
BRK	89	192	5
STR	89	288	0
SI_	89	288	0	96	48	5
STR	89	288	7
SI_	89	288	7	96	48	5
STR	90	0	0
SI_	90	0	0	96	48	2
STR	90	0	7
SI_	90	0	7	96	48	2
STR	90	96	0
SF_	90	96	0	96	48	4
TAP	90	96	7
TAP	90	192	0
XTP	90	288	2
XTP	90	288	6
STR	91	0	6
SI_	91	0	6	96	48	3
STR	91	48	2
SI_	91	48	2	96	48	7
XTP	91	96	6
XTP	91	144	2
XTP	91	240	4
XTP	91	288	0
XTP	91	288	4
TAP	92	0	2
STR	92	0	6
SCR	92	0	6	96	48	1
STR	92	96	3
SI_	92	96	3	96	48	6
STR	92	192	7
SI_	92	192	7	96	48	4
XTP	92	288	0
STR	93	48	2
SI_	93	48	2	96	48	7
STR	93	48	6
SI_	93	48	6	96	48	3
STR	93	96	3
SI_	93	96	3	96	48	6
STR	93	96	7
SI_	93	96	7	96	48	2
TTP	93	288	0	C	1	M1
STR	94	0	0
SI_	94	0	0	96	48	5
STR	94	0	7
SI_	94	0	7	96	48	5
STR	94	96	7
SI_	94	96	7	96	48	3
TAP	94	192	7
STR	94	288	0
SSL	94	288	0	96	96	4
STR	95	0	4
SSL	95	0	4	96	96	0
XTP	95	240	6
XTP	95	288	2
XTP	95	288	6
TAP	96	0	1
STR	96	0	5
SCL	96	0	5	96	48	2
STR	96	96	0
SI_	96	96	0	96	48	3
SI_	96	96	0	96	48	5
TAP	96	192	0
XTP	96	288	2
XTP	96	288	6
BRK	97	0	1
BRK	97	0	7
XTP	97	16	6
XTP	97	32	5
XTP	97	48	4
BRK	97	144	0
BRK	97	144	6
XTP	97	160	1
XTP	97	176	2
XTP	97	192	3
BRK	97	288	1
BRK	97	288	5
STR	98	0	0
SI_	98	0	0	96	48	4
STR	98	0	1
SI_	98	0	1	96	48	5
TAP	98	96	0
TAP	98	96	1
STR	98	192	6
SI_	98	192	6	96	48	2
STR	98	192	7
SI_	98	192	7	96	48	3
TAP	98	288	6
TAP	98	288	7
STR	99	0	1
SI_	99	0	1	96	48	4
STR	99	48	5
SI_	99	48	5	96	48	0
XTP	99	96	1
XTP	99	144	5
XTP	99	240	3
XTP	99	288	3
XTP	99	288	7
STR	100	0	1
SCL	100	0	1	96	48	6
TAP	100	0	5
STR	100	96	4
SI_	100	96	4	96	48	1
STR	100	192	0
SI_	100	192	0	96	48	3
XTP	100	288	7
STR	101	48	1
SI_	101	48	1	96	48	4
STR	101	48	5
SI_	101	48	5	96	48	0
STR	101	96	0
SI_	101	96	0	96	48	5
STR	101	96	4
SI_	101	96	4	96	48	1
TTP	101	288	0	C	1	M1
STR	102	0	1
SI_	102	0	1	96	48	3
STR	102	0	7
SI_	102	0	7	96	48	5
TAP	102	96	1
TAP	102	96	7
STR	102	192	4
SI_	102	192	4	96	48	2
SI_	102	192	4	96	48	6
BST	102	288	4
SSL	102	288	4	96	96	0
STR	103	0	0
SSL	103	0	0	96	96	4
XTP	103	240	7
XTP	103	288	3
XTP	103	288	7
STR	104	0	2
SCR	104	0	2	96	48	5
TAP	104	0	6
STR	104	96	7
SI_	104	96	7	96	48	2
SI_	104	96	7	96	48	4
TAP	104	192	7
XTP	104	288	1
XTP	104	288	5
BRK	105	0	0
BRK	105	0	6
XTP	105	16	1
XTP	105	32	2
XTP	105	48	3
BRK	105	144	1
BRK	105	144	7
TAP	105	192	1
STR	105	192	7
SXR	105	192	7	96	96	7
BRK	105	288	0
BST	105	288	7
SCR	105	288	7	96	288	7
TTP	106	0	0	C	1	M1
TAP	107	48	3
TAP	107	96	4
TAP	107	144	1
TAP	107	192	0
STR	107	192	3
SI_	107	192	3	96	48	0
HLD	107	288	2	96
TAP	107	288	3
TAP	108	0	7
TAP	108	96	3
TAP	108	96	5
TAP	108	192	2
TAP	108	192	4
TAP	108	288	1
TAP	108	288	5
TAP	108	336	1
TAP	108	336	5
TAP	109	48	4
TAP	109	96	3
TAP	109	144	6
STR	109	192	4
SI_	109	192	4	96	48	1
TAP	109	192	7
TAP	109	288	4
HLD	109	288	5	96
TAP	110	0	0
TAP	110	96	2
TAP	110	96	4
TAP	110	192	3
TAP	110	192	5
TAP	110	288	2
TAP	110	288	6
TAP	110	336	2
TAP	110	336	6
TAP	111	48	3
STR	111	96	3
SF_	111	96	3	96	48	7
TAP	111	288	2
TAP	111	288	5
TAP	112	0	3
TAP	112	0	5
TAP	112	192	2
TAP	112	192	4
TAP	112	288	0
TAP	112	336	0
TAP	113	48	2
TAP	113	48	6
TAP	113	96	2
TAP	113	96	6
TAP	113	144	2
TAP	113	144	6
STR	113	192	2
SI_	113	192	2	96	48	7
STR	113	192	6
SI_	113	192	6	96	48	3
XTP	113	288	2
XTP	113	288	6
BRK	114	0	0
BRK	114	0	5
BRK	114	192	2
BRK	114	192	7
TAP	114	288	3
TAP	114	288	4
TAP	114	336	3
TAP	114	336	4
TAP	115	48	0
TAP	115	48	7
TAP	115	96	1
TAP	115	96	6
TAP	115	144	3
TAP	115	144	4
BRK	115	192	2
BRK	115	192	5
XTP	115	288	1
XTP	115	288	7
XTP	115	336	1
XTP	115	336	7
TAP	116	48	0
TAP	116	48	6
TAP	116	96	7
TAP	116	144	0
TAP	116	192	1
TAP	116	192	4
TAP	116	240	2
TAP	116	264	3
STR	116	288	1
SI_	116	288	1	96	48	4
TAP	116	336	1
STR	117	0	5
SI_	117	0	5	96	48	0
TAP	117	48	5
STR	117	96	2
SI_	117	96	2	96	48	7
TAP	117	144	2
TAP	117	192	5
TAP	117	240	5
TAP	117	288	4
TAP	117	336	3
TAP	117	336	6
TAP	118	48	5
TAP	118	96	2
TAP	118	144	1
TAP	118	144	4
TAP	118	192	2
TAP	118	216	3
TAP	118	240	1
TAP	118	288	5
TAP	118	312	4
TAP	118	336	6
TAP	119	0	3
TAP	119	0	6
TAP	119	48	7
TAP	119	96	0
TAP	119	144	1
TAP	119	144	4
TAP	119	192	0
TAP	119	240	0
TAP	119	288	0
TAP	119	288	7
XTP	119	336	1
XHO	119	336	6	96
STR	120	48	1
SCL	120	48	1	96	432	3
TAP	120	72	2
TAP	120	96	3
TTP	120	144	0	C	1	M1
TTP	121	336	7	B	0	M1
TTP	121	360	0	C	0	M1
TTP	122	0	3	B	0	M1

T_REC_TAP	517
T_REC_BRK	53
T_REC_XTP	89
T_REC_HLD	33
T_REC_XHO	1
T_REC_STR	141
T_REC_BST	4
T_REC_XST	0
T_REC_TTP	30
T_REC_THO	0
T_REC_SLD	150
T_REC_ALL	1018
T_NUM_TAP	777
T_NUM_BRK	57
T_NUM_HLD	34
T_NUM_SLD	150
T_NUM_ALL	1018
T_JUDGE_TAP	834
T_JUDGE_HLD	122
T_JUDGE_SLD	150
T_JUDGE_ALL	1106
TTM_EACHPAIRS	244
TTM_SCR_TAP	388500
TTM_SCR_BRK	148200
TTM_SCR_HLD	34000
TTM_SCR_SLD	225000
TTM_SCR_ALL	795700
TTM_SCR_S	766300
TTM_SCR_SS	790000
TTM_RAT_ACV	10072

