VERSION	0.00.00	1.03.00
FES_MODE	0
BPM_DEF	204.000	204.000	204.000	204.000
MET_DEF	4	4
RESOLUTION	384
CLK_DEF	384
COMPATIBLE_CODE	MA2

BPM	0	0	204.000
MET	0	0	4	4

BRK	5	288	0
TAP	6	0	6
TAP	6	96	5
TAP	6	192	3
TAP	6	288	2
TAP	6	288	4
TAP	7	0	1
TAP	7	96	2
TAP	7	192	4
TAP	7	288	3
TAP	7	288	5
TAP	8	0	6
TAP	8	96	5
TAP	8	192	3
TAP	8	288	2
TAP	8	288	4
HLD	9	0	5	144
TAP	9	96	4
TAP	9	144	4
TAP	9	240	3
TAP	9	240	6
TAP	9	288	3
TAP	9	288	6
TAP	10	0	6
TAP	10	96	4
TAP	10	192	2
TAP	10	288	1
TAP	10	288	3
TAP	11	0	1
TAP	11	96	3
TAP	11	192	5
TAP	11	288	4
TAP	11	288	6
HLD	12	0	5	96
TAP	12	96	4
HLD	12	192	3	96
STR	12	288	2
SCL	12	288	2	96	192	5
XTP	13	288	3
XTP	13	288	4
HLD	14	0	2	576
TAP	14	0	5
TAP	14	96	3
TAP	14	192	3
TAP	14	288	4
TAP	15	0	3
TAP	15	96	3
XTP	15	192	4
XTP	15	288	3
HLD	16	0	2	96
HLD	16	0	4	96
HLD	16	192	3	96
HLD	16	192	5	96
TTP	17	0	5	E	0	M1
TTP	17	96	3	E	0	M1
TTP	17	192	6	B	0	M1
TTP	17	192	7	B	0	M1
TTP	17	288	0	B	0	M1
TTP	17	288	1	B	0	M1
HLD	18	0	5	192
TAP	18	96	4
TAP	18	192	4
TAP	18	288	3
TAP	18	288	4
HLD	19	0	2	192
TAP	19	96	3
XTP	19	192	3
XTP	19	288	1
XTP	19	288	4
TAP	20	0	2
TAP	20	96	3
TAP	20	96	4
TAP	20	192	4
TAP	20	192	5
TAP	20	288	6
HLD	21	0	0	96
HLD	21	0	7	96
XTP	21	192	1
XTP	21	192	6
HLD	22	0	5	576
TAP	22	96	4
TAP	22	192	4
TAP	22	288	3
TAP	23	0	4
TAP	23	96	4
TAP	23	192	3
TAP	23	288	4
HLD	24	0	3	96
HLD	24	0	5	96
HLD	24	192	2	96
HLD	24	192	4	96
TTP	25	0	3	E	0	M1
TTP	25	96	5	E	0	M1
TTP	25	192	1	B	0	M1
TTP	25	192	1	E	0	M1
TTP	25	288	6	B	0	M1
TTP	25	288	7	E	0	M1
HLD	26	0	2	192
TAP	26	96	3
TAP	26	192	3
TAP	26	288	1
TAP	26	288	4
HLD	27	0	5	192
TAP	27	96	4
TAP	27	192	4
XTP	27	288	3
XTP	27	288	6
STR	28	0	7
SCL	28	0	7	96	96	4
STR	28	192	0
SCR	28	192	0	96	96	3
XTP	29	0	4
XTP	29	96	5
BRK	29	192	6
BRK	29	192	7
BRK	29	288	0
BRK	29	288	1
STR	30	0	2
SCR	30	0	2	96	144	5
HLD	30	0	7	192
TTP	31	0	4	B	0	M1
TTP	31	0	5	B	0	M1
TTP	31	0	6	E	0	M1
TTP	31	192	2	B	0	M1
TTP	31	192	2	E	0	M1
TTP	31	192	3	B	0	M1
HLD	32	0	0	192
STR	32	0	5
SCL	32	0	5	96	144	2
TTP	33	0	2	B	0	M1
TTP	33	0	2	E	0	M1
TTP	33	0	3	B	0	M1
TTP	33	192	4	B	0	M1
TTP	33	192	5	B	0	M1
TTP	33	192	6	E	0	M1
STR	34	0	0
SUR	34	0	0	96	144	5
STR	34	0	1
SCR	34	0	1	96	144	4
STR	35	0	6
SCL	35	0	6	96	144	3
STR	35	0	7
SUL	35	0	7	96	144	2
TTP	36	0	0	E	0	M1
TTP	36	96	0	C	0	M1
TTP	36	192	4	E	0	M1
TAP	36	288	2
TAP	36	288	5
TAP	36	336	2
TAP	36	336	5
TAP	37	48	1
TAP	37	48	6
TAP	37	96	1
TAP	37	96	6
TAP	37	144	1
TAP	37	144	6
BRK	37	192	1
BRK	37	192	6
XTP	38	0	2
XTP	38	0	3
XTP	38	96	4
XTP	38	96	6
XTP	38	192	0
XTP	38	192	7
TAP	38	288	1
TAP	38	288	3
TAP	39	0	4
TAP	39	0	5
TAP	39	96	2
TAP	39	96	7
TAP	39	192	2
TAP	39	192	3
TAP	39	288	0
TAP	39	288	5
HLD	40	0	6	96
HLD	40	96	7	96
TAP	40	192	0
STR	40	288	0
SSL	40	288	0	96	192	4
TAP	40	288	1
BRK	41	288	1
BRK	41	288	6
TAP	42	0	4
TAP	42	0	5
TAP	42	96	2
TAP	42	96	7
TAP	42	192	2
TAP	42	192	3
TAP	42	288	0
TAP	42	288	5
TAP	43	0	4
TAP	43	0	6
TAP	43	96	3
TAP	43	96	4
TAP	43	192	1
TAP	43	192	3
TAP	43	288	0
TAP	43	288	7
HLD	44	0	1	96
TAP	44	0	6
TAP	44	96	3
TAP	44	192	1
HLD	44	192	6	96
STR	44	288	4
SCL	44	288	4	96	192	6
BRK	45	288	2
BRK	45	288	5
TAP	46	0	4
TAP	46	0	5
TAP	46	96	6
TAP	46	96	7
TAP	46	192	0
TAP	46	192	1
TAP	46	288	2
TAP	46	288	3
TAP	47	0	4
TAP	47	0	6
TAP	47	96	0
TAP	47	96	1
TAP	47	192	1
TAP	47	192	3
TAP	47	288	6
TAP	47	288	7
HLD	48	0	6	96
HLD	48	96	5	96
TAP	48	192	4
TAP	48	288	2
STR	48	288	3
SSR	48	288	3	96	192	7
BRK	49	288	0
BRK	49	288	6
TAP	50	0	2
TAP	50	0	3
TAP	50	96	4
TAP	50	96	6
TAP	50	192	0
TAP	50	192	7
TAP	50	288	1
TAP	50	288	3
TAP	51	0	4
TAP	51	0	5
TAP	51	96	1
TAP	51	96	6
TAP	51	192	2
TAP	51	192	3
TAP	51	288	1
TAP	51	288	6
HLD	52	0	2	96
TAP	52	0	5
HLD	52	96	1	96
HLD	52	192	0	96
TAP	52	288	7
HLD	53	0	6	96
HLD	53	0	7	96
HLD	53	144	0	96
HLD	53	144	5	96
XTP	53	288	1
XTP	53	288	4
HLD	54	0	2	192
TAP	54	96	3
TAP	54	192	3
TAP	54	288	2
TAP	54	288	4
TAP	54	336	2
TAP	54	336	4
TAP	55	48	5
TAP	55	96	5
TAP	55	192	4
TAP	55	192	6
TAP	55	288	7
HLD	56	0	6	192
TAP	56	96	4
TAP	56	192	4
TAP	56	288	3
TAP	56	288	5
TAP	56	336	3
TAP	56	336	5
TAP	57	48	2
TAP	57	48	4
TAP	57	96	2
TAP	57	96	4
XTP	57	192	1
XTP	57	192	6
HLD	58	0	1	192
TAP	58	96	3
TAP	58	192	3
TAP	58	288	2
TAP	58	288	7
TAP	58	336	2
TAP	58	336	7
TAP	59	48	6
TAP	59	96	6
TAP	59	192	0
TAP	59	192	5
TAP	59	288	4
TAP	60	0	2
TAP	60	0	3
TAP	60	96	4
TAP	60	96	5
TAP	60	192	3
TAP	60	192	4
TAP	60	288	2
TAP	60	288	5
TAP	60	336	2
TAP	60	336	5
TAP	61	48	7
TAP	61	96	7
TAP	61	144	0
BRK	61	192	1
BRK	61	192	6
XTP	61	288	2
XTP	61	288	4
XTP	61	336	2
XTP	61	336	4
TAP	62	48	0
STR	62	96	0
SCR	62	96	0	96	96	3
TAP	62	192	5
TAP	62	288	5
TAP	63	0	6
STR	63	96	7
SCL	63	96	7	96	96	4
TAP	63	192	2
TAP	63	288	2
TAP	64	0	1
STR	64	96	0
SI_	64	96	0	96	96	4
TAP	64	192	6
TAP	64	288	6
TAP	65	0	5
TAP	65	48	5
TAP	65	96	4
HLD	65	192	2	96
TAP	65	288	3
TAP	66	0	2
TAP	66	0	4
STR	66	96	3
SCL	66	96	3	96	96	0
TAP	66	192	6
TAP	66	288	6
TAP	67	0	5
STR	67	96	4
SCR	67	96	4	96	96	7
TAP	67	192	1
TAP	67	288	1
HLD	68	0	1	96
HLD	68	96	3	96
HLD	68	192	4	96
TAP	68	288	5
HLD	69	0	5	96
HLD	69	96	7	96
HLD	69	192	0	96
STR	69	288	1
SCL	69	288	1	96	384	2
XTP	71	192	2
XTP	71	192	5
TTP	72	0	2	E	0	M1
TTP	72	96	3	E	0	M1
TTP	72	192	5	E	0	M1
TTP	72	288	6	E	0	M1
THO	73	0	0	192	C	0	M1
TAP	74	0	6
HLD	74	96	6	192
TAP	74	192	5
HLD	74	288	5	192
TAP	75	0	4
HLD	75	96	4	192
TAP	75	192	3
TAP	75	288	3
TTP	76	0	2	B	0	M1
TTP	76	96	0	B	0	M1
TTP	76	96	1	E	0	M1
TTP	76	192	5	B	0	M1
TTP	76	288	7	B	0	M1
TTP	76	288	7	E	0	M1
TTP	77	0	4	E	0	M1
TTP	77	96	0	C	0	M1
TTP	77	192	1	B	0	M1
TTP	77	192	6	B	0	M1
TAP	78	0	2
HLD	78	96	2	192
TAP	78	192	1
HLD	78	288	1	192
TAP	79	0	0
HLD	79	96	0	192
TAP	79	192	7
TAP	79	288	7
TTP	80	0	7	E	0	M1
TTP	80	96	4	B	0	M1
TTP	80	96	5	B	0	M1
TTP	80	192	1	E	0	M1
TTP	80	288	2	B	0	M1
TTP	80	288	3	B	0	M1
THO	81	0	0	384	C	1	M1
XTP	82	192	0
XTP	82	192	7
TTP	83	0	2	B	0	M1
TTP	83	0	2	E	0	M1
TTP	83	0	3	B	0	M1
TTP	83	0	3	E	0	M1
TTP	83	192	4	B	0	M1
TTP	83	192	5	B	0	M1
TTP	83	192	5	E	0	M1
TTP	83	192	6	E	0	M1
STR	84	0	6
SUR	84	0	6	96	144	3
STR	84	0	7
SCR	84	0	7	96	144	2
TTP	85	0	4	B	0	M1
TTP	85	0	5	B	0	M1
TTP	85	0	5	E	0	M1
TTP	85	0	6	E	0	M1
TTP	85	192	2	B	0	M1
TTP	85	192	2	E	0	M1
TTP	85	192	3	B	0	M1
TTP	85	192	3	E	0	M1
STR	86	0	0
SCL	86	0	0	96	144	5
STR	86	0	1
SUL	86	0	1	96	144	4
TTP	87	0	2	B	0	M1
TTP	87	0	2	E	0	M1
TTP	87	0	3	B	0	M1
TTP	87	0	3	E	0	M1
TTP	87	192	4	B	0	M1
TTP	87	192	5	B	0	M1
TTP	87	192	5	E	0	M1
TTP	87	192	6	E	0	M1
TTP	88	0	0	E	0	M1
TTP	88	96	0	C	0	M1
TTP	88	192	4	E	0	M1
XTP	88	288	2
XTP	88	288	5
XTP	88	336	2
XTP	88	336	5
TAP	89	48	0
TAP	89	48	7
TAP	89	96	0
TAP	89	96	7
TAP	89	144	0
TAP	89	144	7
BRK	89	192	1
BRK	89	192	6
XTP	90	0	4
XTP	90	0	5
XTP	90	96	1
XTP	90	96	3
TAP	90	192	6
TAP	90	192	7
TAP	90	288	0
TAP	90	288	1
TAP	91	0	3
TAP	91	0	4
TAP	91	96	6
TAP	91	96	7
TAP	91	192	3
TAP	91	192	4
TAP	91	288	0
TAP	91	288	1
TAP	92	0	2
HLD	92	0	7	96
HLD	92	96	6	96
HLD	92	192	5	96
STR	92	288	4
SSR	92	288	4	96	192	0
BRK	93	288	1
BRK	93	288	6
TAP	94	0	4
TAP	94	0	5
TAP	94	96	0
TAP	94	96	1
TAP	94	192	2
TAP	94	192	3
TAP	94	288	6
TAP	94	288	7
TAP	95	0	0
TAP	95	0	5
TAP	95	96	2
TAP	95	96	3
TAP	95	192	2
TAP	95	192	7
TAP	95	288	4
TAP	95	288	5
HLD	96	0	1	96
TAP	96	0	6
HLD	96	96	2	96
HLD	96	192	3	96
STR	96	288	4
SUL	96	288	4	96	192	7
BRK	97	288	0
TAP	98	0	1
TAP	98	0	3
TAP	98	96	4
TAP	98	96	5
TAP	98	192	1
TAP	98	192	2
TAP	98	288	6
TAP	98	288	7
TAP	99	0	3
TAP	99	0	4
TAP	99	96	0
TAP	99	96	1
TAP	99	192	3
TAP	99	192	4
TAP	99	288	0
TAP	99	288	6
HLD	100	0	2	96
TAP	100	0	7
HLD	100	96	3	96
HLD	100	192	4	96
STR	100	288	5
SSR	100	288	5	96	192	1
BRK	101	288	0
BRK	101	288	7
TAP	102	0	1
TAP	102	0	3
TAP	102	96	4
TAP	102	96	6
XTP	102	192	0
XTP	102	192	2
XTP	102	288	5
XTP	102	288	7
TAP	103	0	3
TAP	103	0	4
TAP	103	96	0
TAP	103	96	1
TAP	103	192	3
TAP	103	192	4
TAP	103	288	6
TAP	103	288	7
HLD	104	0	6	96
HLD	104	96	4	96
HLD	104	192	3	96
TAP	104	288	1
HLD	105	0	0	96
HLD	105	0	1	96
HLD	105	144	2	96
HLD	105	144	7	96
XTP	105	288	3
XTP	105	288	6
HLD	106	0	6	192
TAP	106	96	7
TAP	106	192	7
TAP	106	288	4
TAP	106	288	5
TAP	106	336	4
TAP	106	336	5
TAP	107	48	3
TAP	107	48	6
TAP	107	96	3
TAP	107	96	6
XTP	107	192	0
XTP	107	288	1
XTP	107	288	3
HLD	108	0	2	192
TAP	108	96	3
TAP	108	192	3
TAP	108	288	0
TAP	108	288	1
TAP	108	336	0
TAP	108	336	1
TAP	109	48	6
TAP	109	48	7
TAP	109	96	6
TAP	109	96	7
XTP	109	192	0
XTP	109	192	5
HLD	110	0	6	192
TAP	110	96	4
TAP	110	192	4
TAP	110	288	5
TAP	110	336	4
TAP	110	336	5
TAP	111	48	1
TAP	111	96	1
TAP	111	96	3
XTP	111	192	3
XTP	111	192	4
XTP	111	288	2
XTP	111	288	5
TAP	112	0	0
TAP	112	0	1
TAP	112	96	6
TAP	112	96	7
TAP	112	192	0
TAP	112	192	7
TAP	112	288	1
TAP	112	288	6
TAP	112	336	1
TAP	112	336	6
TAP	113	48	3
TAP	113	96	3
TAP	113	144	4
BRK	113	192	2
BRK	113	192	5
THO	114	0	0	192	C	0	M1
TTP	114	0	1	B	0	M1
TTP	114	0	6	B	0	M1
XTP	114	336	0
XTP	114	336	7
XTP	115	48	1
XTP	115	48	6
XTP	115	96	1
XTP	115	96	6
XTP	115	144	1
XTP	115	144	6
BRK	115	192	1
BRK	115	192	6
XHO	115	336	3	96
XHO	115	336	4	96
XTP	116	96	3
XTP	116	96	4
HLD	116	192	2	96
HLD	116	288	5	96
TAP	117	0	4
TAP	117	96	4
TAP	117	96	6
TAP	117	192	0
TAP	117	192	7
TAP	117	288	1
TAP	117	288	3
TAP	118	0	3
TAP	118	0	4
TAP	118	96	4
TAP	118	96	6
TAP	118	192	3
TAP	118	192	4
XTP	118	288	1
XTP	118	288	6
TTP	119	0	1	E	0	M1
TTP	119	48	2	E	0	M1
TTP	119	96	3	E	0	M1
TTP	119	144	4	E	0	M1
TTP	119	192	5	E	0	M1
TTP	119	240	6	E	0	M1
TTP	119	288	7	E	0	M1
THO	119	336	0	192	C	1	M1

T_REC_TAP	335
T_REC_BRK	26
T_REC_XTP	66
T_REC_HLD	71
T_REC_XHO	2
T_REC_STR	25
T_REC_BST	0
T_REC_XST	0
T_REC_TTP	83
T_REC_THO	4
T_REC_SLD	25
T_REC_ALL	637
T_NUM_TAP	509
T_NUM_BRK	26
T_NUM_HLD	77
T_NUM_SLD	25
T_NUM_ALL	637
T_JUDGE_TAP	535
T_JUDGE_HLD	223
T_JUDGE_SLD	25
T_JUDGE_ALL	783
TTM_EACHPAIRS	180
TTM_SCR_TAP	254500
TTM_SCR_BRK	67600
TTM_SCR_HLD	77000
TTM_SCR_SLD	37500
TTM_SCR_ALL	436600
TTM_SCR_S	421000
TTM_SCR_SS	434000
TTM_RAT_ACV	10059

