VERSION	0.00.00	1.03.00
FES_MODE	0
BPM_DEF	204.000	204.000	204.000	204.000
MET_DEF	4	4
RESOLUTION	384
CLK_DEF	384
COMPATIBLE_CODE	MA2

BPM	0	0	204.000
MET	0	0	4	4

TAP	6	0	2
TAP	6	96	2
TAP	6	192	2
TAP	7	0	4
TAP	7	96	4
TAP	7	192	4
TAP	8	0	3
TAP	8	96	3
TAP	8	192	3
TAP	9	0	5
TAP	9	96	5
TAP	9	192	4
TAP	9	192	5
TAP	10	0	6
TAP	10	96	6
TAP	10	192	6
TAP	11	0	0
TAP	11	96	0
TAP	11	192	0
HLD	12	0	0	192
HLD	12	0	7	192
TAP	13	0	1
TAP	13	0	6
TAP	13	96	1
TAP	13	96	6
BRK	13	192	1
BRK	13	192	6
HLD	14	0	2	192
TAP	14	192	3
TAP	15	0	4
TAP	15	96	4
TAP	15	192	3
HLD	16	0	5	192
TAP	16	192	4
TAP	17	0	6
TAP	17	96	6
TAP	17	192	6
TAP	17	192	7
HLD	18	0	1	192
TAP	18	192	0
HLD	19	0	6	192
TAP	19	192	7
TAP	20	0	0
TAP	20	96	0
TAP	20	192	7
TAP	20	288	7
XTP	21	0	0
XTP	21	0	7
XTP	21	192	1
XTP	21	192	6
HLD	22	0	5	192
TAP	22	192	4
TAP	23	0	3
TAP	23	96	3
TAP	23	192	4
HLD	24	0	2	192
TAP	24	192	3
TAP	25	0	1
TAP	25	96	1
TAP	25	192	0
TAP	25	192	1
HLD	26	0	6	192
TAP	26	192	7
HLD	27	0	1	192
TAP	27	192	0
STR	28	0	0
SI_	28	0	0	96	288	3
STR	28	0	7
SI_	28	0	7	96	288	4
XTP	29	192	2
XTP	29	192	5
TTP	30	0	2	E	0	L1
TTP	30	192	2	B	0	L1
TTP	31	0	3	B	0	L1
TTP	31	192	4	E	0	L1
TTP	32	0	4	B	0	L1
TTP	32	192	5	B	0	L1
TTP	33	0	0	C	0	L1
TTP	33	0	6	E	0	L1
TTP	34	0	6	B	0	L1
TTP	34	0	7	E	0	L1
TTP	34	192	7	B	0	L1
TTP	35	0	0	B	0	L1
TTP	35	192	1	B	0	L1
TTP	35	192	1	E	0	L1
THO	36	0	0	384	C	1	L1
XTP	38	0	0
XTP	38	96	0
XTP	38	192	1
XTP	38	192	7
TAP	39	0	2
TAP	39	96	2
TAP	39	192	1
TAP	39	192	3
TAP	40	0	4
TAP	40	96	4
TAP	40	192	3
STR	40	288	3
SI_	40	288	3	96	192	0
XTP	41	288	7
XTP	42	0	7
XTP	42	96	7
XTP	42	192	0
XTP	42	192	6
TAP	43	0	5
TAP	43	96	5
TAP	43	192	4
TAP	43	192	6
TAP	44	0	2
TAP	44	96	2
TAP	44	192	4
TAP	44	288	4
HLD	45	0	3	96
HLD	45	0	4	96
XTP	45	192	2
XTP	45	192	5
TAP	46	0	2
TAP	46	96	2
TAP	46	96	3
TAP	46	192	1
TAP	46	192	4
TAP	47	0	5
TAP	47	96	4
TAP	47	96	5
TAP	47	192	3
TAP	47	192	6
TAP	48	0	7
TAP	48	96	7
TAP	48	192	0
STR	48	288	0
SI_	48	288	0	96	192	4
XTP	49	288	5
TAP	50	0	6
TAP	50	96	6
TAP	50	96	7
TAP	50	192	0
TAP	50	192	5
TAP	51	0	1
TAP	51	96	0
TAP	51	96	1
TAP	51	192	2
TAP	51	192	7
STR	52	0	3
SI_	52	0	3	96	240	0
STR	52	0	4
SI_	52	0	4	96	240	7
XTP	53	192	1
XTP	53	192	6
STR	54	0	1
SCR	54	0	1	96	240	4
TAP	55	192	5
TAP	55	288	5
STR	56	0	5
SCR	56	0	5	96	240	0
TAP	57	192	1
TAP	57	288	1
STR	58	0	2
SCR	58	0	2	96	240	5
XTP	59	192	4
XTP	59	192	6
THO	60	0	0	336	C	1	L1
XTP	61	192	0
XTP	61	192	7
XTP	62	0	1
TAP	62	96	1
TAP	62	192	2
TAP	62	288	2
TAP	63	0	2
TAP	63	0	3
TAP	63	192	1
TAP	63	192	4
TAP	64	0	5
TAP	64	96	5
TAP	64	192	6
TAP	64	288	6
TAP	65	0	6
TAP	65	0	7
TAP	65	192	0
TAP	65	192	5
TAP	66	0	6
TAP	66	96	6
TAP	66	192	5
TAP	66	288	5
TAP	67	0	4
TAP	67	0	5
TAP	67	192	3
TAP	67	192	6
TAP	68	0	2
TAP	68	96	2
TAP	68	192	1
TAP	68	288	1
TAP	69	0	0
TAP	69	0	7
TAP	69	192	1
TAP	69	192	6
STR	70	0	2
SLL	70	0	2	96	480	3
STR	70	0	5
SLR	70	0	5	96	480	4
THO	72	0	0	384	C	0	L1
HLD	74	0	1	192
HLD	74	192	2	192
TAP	75	0	3
TAP	75	192	3
TAP	75	192	4
HLD	76	0	5	192
HLD	76	192	6	192
TAP	77	0	7
TAP	77	192	0
TAP	77	192	7
HLD	78	0	6	192
HLD	78	192	5	192
TAP	79	0	4
TAP	79	192	3
TAP	79	192	4
XHO	80	0	2	336
XHO	80	0	5	336
TTP	82	0	1	E	0	L1
TTP	82	192	2	E	0	L1
TTP	83	0	3	E	0	L1
TTP	83	192	4	E	0	L1
TTP	84	0	5	E	0	L1
TTP	84	192	6	E	0	L1
THO	85	0	0	192	C	0	L1
TTP	86	0	0	B	0	L1
TTP	86	0	7	B	0	L1
TTP	86	192	1	B	0	L1
TTP	86	192	6	B	0	L1
TTP	87	0	2	B	0	L1
TTP	87	0	5	B	0	L1
TTP	87	192	3	B	0	L1
TTP	87	192	4	B	0	L1
THO	88	0	0	384	C	1	L1
XTP	90	0	7
XTP	90	96	7
XTP	90	192	6
TAP	90	288	6
TAP	91	0	4
TAP	91	0	5
TAP	91	96	4
TAP	91	96	5
TAP	91	192	3
TAP	91	192	6
TAP	92	0	2
TAP	92	96	2
TAP	92	192	3
STR	92	288	4
SI_	92	288	4	96	192	7
XTP	93	288	0
TAP	94	0	1
TAP	94	96	1
TAP	94	192	2
TAP	94	288	2
TAP	95	0	2
TAP	95	0	3
TAP	95	96	2
TAP	95	96	3
TAP	95	192	1
TAP	95	192	4
TAP	96	0	5
TAP	96	96	4
TAP	96	192	2
TAP	96	288	3
TAP	97	0	3
TAP	97	0	4
TAP	97	96	2
TAP	97	96	5
XTP	97	192	1
XTP	97	192	6
TAP	98	0	0
TAP	98	96	1
TAP	98	192	2
TAP	98	192	3
TAP	98	288	2
TAP	98	288	3
TAP	99	0	4
TAP	99	96	5
TAP	99	192	3
TAP	99	192	6
TAP	100	0	3
TAP	100	96	2
TAP	100	192	1
STR	100	288	1
SI_	100	288	1	96	192	5
XTP	101	288	6
TAP	102	0	6
TAP	102	96	6
XTP	102	192	4
XTP	102	192	5
XTP	102	288	4
XTP	102	288	5
TAP	103	0	3
TAP	103	96	2
TAP	103	192	1
TAP	103	192	4
TAP	104	0	1
TAP	104	96	0
TAP	104	192	6
TAP	104	288	7
HLD	105	0	0	96
HLD	105	0	7	96
XTP	105	192	1
XTP	105	192	6
STR	106	0	2
SCR	106	0	2	96	288	5
TAP	107	192	6
TAP	107	288	6
STR	108	0	6
SCR	108	0	6	96	288	1
TAP	109	192	2
TAP	109	288	2
STR	110	0	3
SUL	110	0	3	96	288	7
XTP	111	192	0
XTP	111	192	6
STR	112	0	7
SI_	112	0	7	96	288	2
SI_	112	0	7	96	288	4
XTP	113	192	3
THO	114	0	0	336	C	1	L1
XTP	115	192	0
XTP	115	192	7
XTP	116	0	1
TAP	116	96	2
TAP	116	192	3
TAP	116	288	4
TAP	116	288	5
TAP	117	0	3
TAP	117	96	2
TAP	117	192	1
TAP	117	192	4
TAP	118	0	6
TAP	118	96	5
TAP	118	192	4
TAP	118	288	3
HLD	119	0	3	96
HLD	119	0	4	96
TAP	119	192	2
TAP	119	192	5
THO	120	0	0	144	C	1	L1

T_REC_TAP	200
T_REC_BRK	2
T_REC_XTP	44
T_REC_HLD	22
T_REC_XHO	2
T_REC_STR	17
T_REC_BST	0
T_REC_XST	0
T_REC_TTP	28
T_REC_THO	7
T_REC_SLD	18
T_REC_ALL	340
T_NUM_TAP	289
T_NUM_BRK	2
T_NUM_HLD	31
T_NUM_SLD	18
T_NUM_ALL	340
T_JUDGE_TAP	291
T_JUDGE_HLD	135
T_JUDGE_SLD	18
T_JUDGE_ALL	444
TTM_EACHPAIRS	65
TTM_SCR_TAP	144500
TTM_SCR_BRK	5200
TTM_SCR_HLD	31000
TTM_SCR_SLD	27000
TTM_SCR_ALL	207700
TTM_SCR_S	201300
TTM_SCR_SS	207500
TTM_RAT_ACV	10009

