VERSION	0.00.00	1.03.00
FES_MODE	0
BPM_DEF	204.000	204.000	204.000	204.000
MET_DEF	4	4
RESOLUTION	384
CLK_DEF	384
COMPATIBLE_CODE	MA2

BPM	0	0	204.000
MET	0	0	4	4

TAP	6	0	2
TAP	7	0	2
TAP	8	0	3
TAP	9	0	3
TAP	9	0	4
TAP	10	0	5
TAP	11	0	5
TAP	12	0	4
TAP	13	0	3
TAP	13	0	4
TAP	14	0	3
TAP	15	0	3
TAP	16	0	2
TAP	16	192	2
HLD	17	0	2	192
TAP	18	0	1
TAP	19	0	1
TAP	20	0	0
TAP	20	192	0
XTP	21	0	0
XTP	21	0	7
TAP	22	0	7
TAP	23	0	7
TAP	24	0	6
TAP	24	192	6
HLD	25	0	6	192
TAP	26	0	5
TAP	27	0	5
TAP	28	0	4
TAP	28	192	4
BRK	29	0	3
BRK	29	0	4
TTP	30	0	3	B	0	L1
TTP	31	0	4	B	0	L1
TTP	32	0	2	B	0	L1
TTP	33	0	5	B	0	L1
TTP	34	0	1	B	0	L1
TTP	35	0	6	B	0	L1
THO	36	0	0	384	C	1	L1
TAP	38	0	7
TAP	38	192	7
TAP	39	0	7
TAP	40	0	6
TAP	40	192	6
XTP	41	0	6
XTP	41	0	7
TAP	42	0	5
TAP	42	192	5
TAP	43	0	5
TAP	44	0	4
TAP	44	192	4
XHO	45	0	3	192
XHO	45	0	4	192
TAP	46	0	3
TAP	46	192	3
TAP	47	0	3
TAP	48	0	2
TAP	48	192	2
XTP	49	0	2
XTP	49	0	3
TAP	50	0	1
TAP	50	192	1
TAP	51	0	1
TAP	52	0	0
TAP	52	192	0
XHO	53	0	0	192
XHO	53	0	7	192
STR	54	0	0
SI_	54	0	0	96	288	4
TAP	56	0	5
TAP	56	192	5
TAP	57	0	4
TAP	57	0	5
STR	58	0	7
SI_	58	0	7	96	288	3
HLD	60	0	2	384
HLD	60	0	3	384
TAP	62	0	0
TAP	62	192	0
TAP	63	0	1
TAP	63	192	1
TAP	64	0	2
TAP	64	192	2
TAP	65	0	3
TAP	65	0	4
TAP	66	0	4
TAP	66	192	4
TAP	67	0	5
TAP	67	192	5
TAP	68	0	6
TAP	68	192	6
BRK	69	0	0
BRK	69	0	7
HLD	70	0	0	384
HLD	72	0	7	384
STR	74	0	0
SI_	74	0	0	96	288	3
STR	76	0	4
SI_	76	0	4	96	288	7
STR	78	0	7
SI_	78	0	7	96	288	4
STR	80	0	3
SI_	80	0	3	96	288	0
TTP	82	0	7	B	0	L1
TTP	83	0	0	B	0	L1
TTP	84	0	6	B	0	L1
TTP	85	0	1	B	0	L1
TTP	86	0	5	B	0	L1
TTP	87	0	2	B	0	L1
THO	88	0	0	384	C	1	L1
TAP	90	0	0
TAP	90	96	0
TAP	90	192	0
TAP	91	0	1
TAP	91	96	1
TAP	91	192	1
TAP	92	0	2
TAP	92	96	2
TAP	92	192	2
XHO	93	0	3	192
TAP	94	0	4
TAP	94	96	4
TAP	94	192	4
TAP	95	0	5
TAP	95	96	5
TAP	95	192	5
TAP	96	0	6
TAP	96	96	6
TAP	96	192	6
XHO	97	0	0	192
XHO	97	0	7	192
TAP	98	0	7
TAP	98	96	7
TAP	98	192	7
TAP	99	0	6
TAP	99	96	6
TAP	99	192	6
TAP	100	0	5
TAP	100	96	5
TAP	100	192	5
XHO	101	0	4	192
TAP	102	0	3
TAP	102	96	3
TAP	102	192	3
TAP	103	0	2
TAP	103	96	2
TAP	103	192	2
TAP	104	0	1
TAP	104	96	1
TAP	104	192	1
XHO	105	0	0	192
XHO	105	0	7	192
STR	106	0	0
SI_	106	0	0	96	288	4
TAP	108	0	5
TAP	108	192	5
XTP	109	0	4
XTP	109	0	5
STR	110	0	7
SI_	110	0	7	96	288	3
TAP	112	0	2
TAP	112	192	2
XTP	113	0	2
XTP	113	0	3
TAP	114	0	3
TAP	114	0	4
TAP	114	192	3
TAP	114	192	4
XTP	115	0	2
XTP	115	0	5
TAP	116	0	5
TAP	116	96	5
TAP	116	192	5
TAP	117	0	6
TAP	117	96	6
TAP	117	192	6
TAP	118	0	7
TAP	118	96	7
TAP	118	192	7
TAP	119	0	0
TAP	119	96	0
TAP	119	192	0
XHO	120	0	0	144
XHO	120	0	7	144

T_REC_TAP	120
T_REC_BRK	4
T_REC_XTP	12
T_REC_HLD	6
T_REC_XHO	12
T_REC_STR	8
T_REC_BST	0
T_REC_XST	0
T_REC_TTP	12
T_REC_THO	2
T_REC_SLD	8
T_REC_ALL	184
T_NUM_TAP	152
T_NUM_BRK	4
T_NUM_HLD	20
T_NUM_SLD	8
T_NUM_ALL	184
T_JUDGE_TAP	156
T_JUDGE_HLD	102
T_JUDGE_SLD	8
T_JUDGE_ALL	266
TTM_EACHPAIRS	20
TTM_SCR_TAP	76000
TTM_SCR_BRK	10400
TTM_SCR_HLD	20000
TTM_SCR_SLD	12000
TTM_SCR_ALL	118400
TTM_SCR_S	114500
TTM_SCR_SS	118000
TTM_RAT_ACV	10033

