VERSION	0.00.00	1.03.00
FES_MODE	0
BPM_DEF	128.000	256.000	256.000	128.000
MET_DEF	4	4
RESOLUTION	384
CLK_DEF	384
COMPATIBLE_CODE	MA2

BPM	0	0	128.000
BPM	5	0	256.000
BPM	13	0	128.000
BPM	17	0	256.000
BPM	41	0	176.000
BPM	51	0	256.000
BPM	103	0	128.000
BPM	107	0	256.000
MET	0	0	4	4

TAP	1	0	4
TAP	1	48	3
TAP	1	96	2
TAP	1	96	5
HLD	1	168	3	72
TAP	1	240	4
TAP	1	288	2
TAP	1	288	5
TAP	2	0	5
TAP	2	48	4
TAP	2	96	3
TAP	2	96	6
HLD	2	168	5	72
TAP	2	240	4
TAP	2	288	3
TAP	2	288	6
TAP	3	0	2
TAP	3	48	3
TAP	3	96	1
TAP	3	96	4
HLD	3	168	2	72
TAP	3	240	3
TAP	3	288	1
HLD	3	288	4	288
XTP	4	0	2
XTP	4	96	1
XHO	4	192	0	96
TTP	4	288	2	E	0	M1
TTP	4	296	2	B	0	M1
TTP	4	304	3	B	0	M1
TTP	4	312	4	B	0	M1
TTP	4	320	5	B	0	M1
TTP	4	328	6	E	0	M1
XTP	5	0	0
XTP	5	0	7
TAP	5	96	0
TAP	5	96	1
TAP	5	192	2
HLD	5	240	2	96
TAP	5	336	3
TAP	6	48	3
TAP	6	48	4
STR	6	144	4
SI_	6	144	4	96	48	2
TAP	6	144	6
TAP	6	240	5
TAP	6	288	5
TAP	7	0	1
TAP	7	0	4
TAP	7	96	2
TAP	7	96	3
TAP	7	192	0
TAP	7	240	0
TAP	7	336	1
TAP	7	336	7
TAP	8	48	2
TAP	8	96	4
TAP	8	144	3
TAP	8	192	5
TAP	8	240	5
TAP	8	288	3
TAP	9	0	1
TAP	9	0	4
TAP	9	96	2
TAP	9	96	3
TAP	9	192	6
HLD	9	240	6	96
TAP	9	336	4
TAP	10	48	3
TAP	10	48	4
TAP	10	144	1
STR	10	144	3
SI_	10	144	3	96	48	5
TAP	10	240	2
TAP	10	288	2
HLD	11	0	6	96
HLD	11	96	4	96
HLD	11	192	3	96
TAP	11	288	1
TAP	12	0	7
TAP	12	48	7
TAP	12	96	1
TAP	12	144	1
TAP	12	192	3
BRK	12	288	1
BRK	12	288	5
TAP	13	0	2
TAP	13	0	3
TTP	13	96	6	B	0	M1
TTP	13	96	6	E	0	M1
TTP	13	96	7	B	0	M1
TAP	13	192	3
TAP	13	240	4
TTP	13	288	1	E	0	M1
TTP	13	288	1	B	0	M1
TTP	13	288	6	B	0	M1
TTP	13	288	7	E	0	M1
TAP	14	0	4
TAP	14	0	5
TTP	14	96	0	B	0	M1
TTP	14	96	1	B	0	M1
TTP	14	96	2	E	0	M1
TAP	14	192	4
TAP	14	240	3
TTP	14	288	1	B	0	M1
TTP	14	288	2	E	0	M1
TTP	14	288	6	E	0	M1
TTP	14	288	6	B	0	M1
TAP	15	0	2
TAP	15	0	3
TTP	15	96	0	E	0	M1
TTP	15	96	6	B	0	M1
TTP	15	96	6	E	0	M1
TTP	15	96	7	B	0	M1
TAP	15	192	4
TAP	15	240	3
TTP	15	288	1	B	0	M1
TTP	15	288	2	E	0	M1
TTP	15	288	6	B	0	M1
TTP	15	288	6	E	0	M1
TAP	16	0	4
TAP	16	0	5
TTP	16	96	0	B	0	M1
TTP	16	96	0	E	0	M1
TTP	16	96	1	B	0	M1
TTP	16	96	2	E	0	M1
THO	16	192	0	96	C	0	M1
TTP	16	192	2	B	0	M1
TTP	16	192	5	B	0	M1
BRK	17	0	0
BRK	17	0	7
TAP	17	96	1
TAP	17	96	3
TAP	17	192	4
TAP	17	240	3
TAP	17	288	5
TAP	17	336	5
TAP	18	48	4
HLD	18	48	6	96
TAP	18	144	7
TAP	18	240	4
TAP	18	240	6
TAP	18	288	4
TAP	18	288	6
TAP	19	0	3
TAP	19	48	5
TAP	19	96	2
TAP	19	144	4
TAP	19	192	1
TAP	19	240	1
TAP	19	288	0
TAP	19	336	0
HLD	20	48	6	96
TAP	20	48	7
TAP	20	144	4
TAP	20	240	2
TAP	20	288	2
TAP	20	288	4
TAP	21	0	0
TAP	21	0	7
TAP	21	96	5
TAP	21	144	5
TAP	21	192	3
TAP	21	240	4
TAP	21	288	1
TAP	21	336	1
TAP	22	48	1
TAP	22	48	2
TAP	22	144	6
TAP	22	144	7
TAP	22	240	0
TAP	22	240	5
TAP	22	288	0
TAP	22	288	5
STR	23	0	6
SI_	23	0	6	96	48	3
STR	23	96	2
SI_	23	96	2	96	48	7
TAP	23	192	6
TAP	23	288	3
TAP	23	288	5
TAP	24	0	1
TAP	24	24	0
TAP	24	48	1
TAP	24	72	0
TAP	24	96	1
TAP	24	120	0
TAP	24	144	1
TAP	24	168	0
TAP	24	192	1
BRK	24	288	2
BRK	24	288	7
XTP	25	0	1
XST	25	0	6
SI_	25	0	6	96	96	4
STR	25	96	4
SI_	25	96	4	96	96	0
TAP	25	192	3
TAP	25	288	2
TAP	25	336	2
HLD	26	48	1	96
TAP	26	48	3
TAP	26	144	2
TAP	26	240	6
TAP	26	288	6
TAP	26	288	7
STR	27	0	1
SLR	27	0	1	96	192	7
XTP	27	0	5
TAP	27	96	3
TAP	27	192	4
TAP	27	288	5
TAP	27	336	5
TAP	28	48	4
HLD	28	48	6	96
TAP	28	144	5
TAP	28	240	1
TAP	28	288	0
TAP	28	288	1
STR	29	0	2
SI_	29	0	2	96	96	0
XTP	29	0	6
STR	29	96	0
SI_	29	96	0	96	96	4
TAP	29	192	7
TAP	29	288	6
TAP	29	336	6
TAP	30	48	4
HLD	30	48	5	96
TAP	30	144	1
TAP	30	240	1
TAP	30	240	3
TAP	30	288	1
TAP	30	288	3
TAP	31	0	1
TAP	31	0	7
TAP	31	96	3
TAP	31	96	5
HLD	31	192	2	96
TAP	31	288	3
TAP	31	336	2
TAP	31	336	3
TAP	32	48	1
TAP	32	48	3
TAP	32	144	1
TAP	32	144	2
TAP	32	240	6
BRK	32	288	6
BRK	32	288	7
TTP	33	0	1	E	0	M1
TTP	33	0	1	B	0	M1
TTP	33	0	2	E	0	M1
TTP	33	96	3	E	0	M1
TTP	33	96	3	B	0	M1
TTP	33	96	4	E	0	M1
TTP	33	192	5	B	0	M1
TTP	33	192	5	E	0	M1
TTP	33	192	6	E	0	M1
TAP	33	288	7
HLD	33	336	7	96
HLD	34	48	1	96
TAP	34	144	3
TAP	34	240	6
TAP	34	288	4
TAP	34	288	6
TTP	35	0	2	B	0	M1
TTP	35	0	2	E	0	M1
TTP	35	0	3	E	0	M1
TTP	35	96	4	B	0	M1
TTP	35	96	4	E	0	M1
TTP	35	96	5	E	0	M1
TTP	35	192	6	E	0	M1
TTP	35	192	6	B	0	M1
TTP	35	192	7	E	0	M1
TAP	35	288	1
HLD	35	336	1	96
HLD	36	48	3	96
TAP	36	144	4
TAP	36	240	6
TAP	36	288	5
TAP	36	288	6
TTP	37	0	1	E	0	M1
TTP	37	0	1	B	0	M1
TTP	37	0	2	E	0	M1
TTP	37	96	0	E	0	M1
TTP	37	96	7	E	0	M1
TTP	37	96	7	B	0	M1
TTP	37	192	5	B	0	M1
TTP	37	192	5	E	0	M1
TTP	37	192	6	E	0	M1
TAP	37	288	3
HLD	37	336	3	96
HLD	38	48	1	96
TAP	38	144	0
TAP	38	240	6
TAP	38	288	6
TAP	38	288	7
TAP	39	0	1
TAP	39	0	4
TAP	39	96	2
TAP	39	96	3
TAP	39	192	4
TAP	39	192	5
HLD	39	288	3	96
TAP	39	288	6
TTP	40	0	6	E	0	M1
TTP	40	24	5	B	0	M1
TTP	40	48	4	B	0	M1
TTP	40	72	4	E	0	M1
TTP	40	96	2	E	0	M1
TTP	40	120	1	B	0	M1
TTP	40	144	0	B	0	M1
TTP	40	168	0	E	0	M1
XHO	40	192	6	192
STR	41	0	3
SSR	41	0	3	96	672	7
SLR	41	0	3	96	480	1
XST	43	0	1
SCR	43	0	1	96	768	7
TAP	43	96	7
TAP	43	192	6
TAP	43	288	5
STR	44	0	4
SCR	44	0	4	96	768	2
TAP	44	96	2
TAP	44	192	1
TAP	44	288	0
STR	45	0	7
SCR	45	0	7	96	768	5
TAP	45	96	5
TAP	45	192	4
TAP	45	288	3
STR	46	0	2
SCR	46	0	2	96	768	0
TAP	46	96	0
TAP	46	192	7
TAP	46	288	6
STR	47	0	5
SCR	47	0	5	96	768	3
TAP	47	96	3
TAP	47	192	2
TAP	47	288	1
STR	48	0	0
SCR	48	0	0	96	768	6
TAP	48	96	6
TAP	48	192	5
TAP	48	288	4
STR	49	0	3
SCR	49	0	3	96	384	6
TAP	49	96	1
TAP	49	192	0
TAP	49	288	7
THO	50	0	0	288	C	0	M1
XTP	50	288	7
XST	51	0	0
SI_	51	0	0	96	48	4
XST	51	96	5
SI_	51	96	5	96	48	0
STR	51	192	1
SI_	51	192	1	96	48	5
TAP	51	288	7
TAP	52	0	3
TAP	52	0	6
TAP	52	96	0
TAP	52	96	4
TAP	52	192	2
TAP	52	192	6
TAP	52	288	1
TAP	52	288	4
STR	53	0	3
SI_	53	0	3	96	48	7
XTP	53	0	5
XST	53	96	6
SI_	53	96	6	96	48	3
HLD	53	192	1	96
HLD	53	288	7	96
STR	54	0	4
SCL	54	0	4	96	48	1
STR	54	96	7
SCL	54	96	7	96	48	4
TAP	54	192	0
TTP	54	288	2	B	0	M1
TTP	54	288	2	E	0	M1
TTP	54	288	3	E	0	M1
TTP	54	288	3	B	0	M1
TTP	54	288	4	E	0	M1
XST	55	0	5
SI_	55	0	5	96	48	1
XST	55	96	0
SI_	55	96	0	96	48	5
STR	55	192	4
SI_	55	192	4	96	48	0
TAP	55	288	2
TAP	56	0	2
TAP	56	0	7
TAP	56	96	1
TAP	56	96	5
TAP	56	192	3
TAP	56	192	6
TAP	56	288	0
TAP	56	288	5
TAP	57	0	0
XST	57	0	7
SI_	57	0	7	96	48	3
XST	57	96	2
SI_	57	96	2	96	48	7
TAP	57	192	5
HLD	57	288	4	96
TAP	58	0	1
TAP	58	48	1
TAP	58	96	3
TAP	58	144	3
TAP	58	192	4
TAP	58	240	4
TAP	58	288	6
TAP	58	336	6
STR	59	0	0
SI_	59	0	0	96	48	4
STR	59	96	5
SCR	59	96	5	96	48	0
STR	59	192	1
SI_	59	192	1	96	48	5
TAP	59	288	4
TAP	60	0	7
TAP	60	48	7
TAP	60	96	5
TAP	60	144	5
TAP	60	192	3
TAP	60	240	3
TAP	60	288	1
STR	61	0	7
SI_	61	0	7	96	48	3
STR	61	96	2
SCL	61	96	2	96	48	7
HLD	61	192	5	96
HLD	61	288	3	96
BRK	62	0	0
TAP	62	24	7
TAP	62	48	6
TAP	62	72	5
BRK	62	96	3
TAP	62	120	2
TAP	62	144	1
TAP	62	168	0
TAP	62	192	6
TAP	62	192	7
TAP	62	288	0
TAP	62	288	5
STR	63	0	4
SI_	63	0	4	96	48	0
STR	63	96	1
SCR	63	96	1	96	48	4
STR	63	192	5
SI_	63	192	5	96	48	1
TAP	63	288	0
TAP	64	0	2
TAP	64	48	2
TAP	64	96	0
TAP	64	144	0
TAP	64	192	6
TAP	64	240	6
TAP	64	288	4
TAP	65	0	3
STR	65	0	7
SI_	65	0	7	96	48	3
TTP	65	96	1	B	0	M1
TTP	65	96	2	B	0	M1
STR	65	192	0
SI_	65	192	0	96	48	4
TAP	65	192	4
TTP	65	288	5	B	0	M1
TTP	65	288	6	B	0	M1
BRK	66	0	7
TAP	66	24	6
TAP	66	48	5
TAP	66	72	4
BRK	66	96	0
TAP	66	120	1
TAP	66	144	2
TAP	66	168	3
BRK	66	192	6
TAP	66	216	5
TAP	66	240	4
TAP	66	264	3
BRK	66	288	1
TAP	66	312	2
TAP	66	336	3
TAP	66	360	4
THO	67	0	0	768	C	0	M1
HLD	69	336	3	144
HLD	69	336	5	144
TAP	70	192	6
TAP	70	216	7
TAP	70	240	6
TAP	70	264	7
BRK	70	288	6
TAP	71	0	5
STR	71	48	5
SI_	71	48	5	96	48	2
HLD	71	144	1	96
TAP	71	240	0
STR	71	288	0
SCL	71	288	0	96	96	4
STR	72	0	4
SCL	72	0	4	96	96	0
TAP	72	96	0
TAP	72	192	4
STR	72	288	6
SI_	72	288	6	96	48	3
TAP	72	336	0
TAP	73	0	6
STR	73	96	1
SI_	73	96	1	96	48	4
TAP	73	144	7
TAP	73	192	1
TAP	73	288	6
TAP	73	336	6
TAP	74	0	7
HLD	74	48	5	96
TAP	74	144	4
TAP	74	240	2
TAP	74	240	3
TAP	74	288	2
TAP	74	288	3
TAP	75	0	1
STR	75	0	4
SI_	75	0	4	96	48	0
TAP	75	96	2
TAP	75	192	3
STR	75	192	7
SCL	75	192	7	96	48	4
TAP	75	288	2
TAP	76	0	1
STR	76	48	0
SI_	76	48	0	96	48	4
STR	76	48	1
SCR	76	48	1	96	48	4
TAP	76	144	0
TAP	76	144	1
TAP	76	240	6
HLD	76	288	6	96
HLD	77	0	4	96
HLD	77	96	2	96
TAP	77	192	0
TAP	77	240	1
TAP	77	240	7
STR	77	288	2
SCL	77	288	2	96	144	4
TAP	77	288	6
XTP	78	0	4
BRK	78	144	2
TAP	78	288	1
TAP	78	288	6
TAP	79	0	2
STR	79	48	2
SI_	79	48	2	96	48	5
HLD	79	144	6	96
TAP	79	240	0
STR	79	288	0
SCR	79	288	0	96	96	4
STR	80	0	4
SCR	80	0	4	96	96	0
TAP	80	96	0
TAP	80	192	4
STR	80	288	1
SI_	80	288	1	96	48	4
TAP	80	336	7
TAP	81	0	1
STR	81	96	6
SI_	81	96	6	96	48	3
TAP	81	144	0
TAP	81	192	6
TAP	81	288	1
TAP	81	336	1
TAP	82	0	0
HLD	82	48	2	96
TAP	82	144	3
TAP	82	240	1
TAP	82	240	4
TAP	82	288	1
TAP	82	288	4
STR	83	0	3
SI_	83	0	3	96	48	7
TAP	83	0	6
TAP	83	96	5
STR	83	192	0
SCR	83	192	0	96	48	3
TAP	83	192	4
TAP	83	288	5
TAP	84	0	6
STR	84	48	6
SCL	84	48	6	96	48	3
STR	84	48	7
SI_	84	48	7	96	48	3
TAP	84	144	6
TAP	84	144	7
TAP	84	240	1
TAP	84	288	0
TAP	84	288	1
XTP	85	0	2
HLD	85	0	4	384
XTP	85	192	1
XHO	86	0	0	192
TAP	86	192	7
TAP	86	240	1
TAP	86	240	6
BRK	86	288	2
BRK	86	288	5
TAP	87	0	1
STR	87	48	1
SI_	87	48	1	96	48	5
HLD	87	144	6	96
TAP	87	240	4
STR	87	288	4
SCL	87	288	4	96	96	0
STR	88	0	0
SCL	88	0	0	96	96	4
TAP	88	96	4
TAP	88	192	0
STR	88	288	6
SCL	88	288	6	96	48	3
TAP	88	336	0
TAP	89	0	6
STR	89	96	1
SCR	89	96	1	96	48	4
TAP	89	144	7
TAP	89	192	1
TAP	89	288	6
TAP	89	336	6
TAP	90	0	7
STR	90	48	5
SI_	90	48	5	96	48	3
TAP	90	144	2
TAP	90	240	1
TAP	90	288	1
TAP	90	288	2
STR	91	0	3
SUR	91	0	3	96	48	7
TAP	91	0	6
TAP	91	96	5
STR	91	192	1
SCR	91	192	1	96	48	4
TAP	91	192	4
TAP	91	288	5
TAP	92	0	6
STR	92	48	6
SCL	92	48	6	96	48	3
STR	92	48	7
SUR	92	48	7	96	48	3
TAP	92	144	6
TAP	92	144	7
TAP	92	240	0
HLD	92	288	0	96
HLD	93	0	2	96
HLD	93	96	4	96
TAP	93	192	6
TAP	93	240	5
TAP	93	240	7
TAP	93	288	0
STR	93	288	4
SCR	93	288	4	96	144	2
XTP	94	0	2
BRK	94	144	4
TAP	94	288	0
TAP	94	288	7
TAP	95	0	6
STR	95	48	6
SI_	95	48	6	96	48	2
HLD	95	144	1	96
TAP	95	240	3
STR	95	288	3
SCR	95	288	3	96	96	7
STR	96	0	7
SCR	96	0	7	96	96	3
TAP	96	96	3
TAP	96	192	7
STR	96	288	6
SCL	96	288	6	96	48	3
TAP	96	336	7
TAP	97	0	6
STR	97	96	1
SCR	97	96	1	96	48	4
TAP	97	144	0
TAP	97	192	1
TAP	97	288	6
TAP	97	336	6
TAP	98	0	7
STR	98	48	5
SI_	98	48	5	96	48	3
TAP	98	144	2
TAP	98	240	1
TAP	98	288	1
TAP	98	288	2
TAP	99	0	0
TAP	99	0	5
TAP	99	96	2
TAP	99	96	3
TAP	99	192	4
TAP	99	192	5
TAP	99	288	3
TAP	99	288	6
TAP	100	0	0
TAP	100	48	0
TAP	100	96	0
TAP	100	144	0
TAP	100	192	0
TAP	100	192	4
TAP	100	240	0
TAP	100	240	4
TAP	100	288	0
TAP	100	288	4
TAP	100	336	0
TAP	100	336	4
STR	101	0	0
SXL	101	0	0	96	384	5
SXR	101	0	0	96	384	5
TAP	101	0	4
BRK	102	192	2
BRK	102	192	7
TAP	103	0	4
TAP	103	0	5
TTP	103	96	0	B	0	M1
TTP	103	96	0	E	0	M1
TTP	103	96	1	B	0	M1
TTP	103	96	2	E	0	M1
TAP	103	192	3
TAP	103	192	4
TTP	103	288	1	B	0	M1
TTP	103	288	2	E	0	M1
TTP	103	288	6	B	0	M1
TTP	103	288	6	E	0	M1
TAP	104	0	2
TAP	104	0	3
TTP	104	96	0	E	0	M1
TTP	104	96	6	E	0	M1
TTP	104	96	6	B	0	M1
TTP	104	96	7	B	0	M1
TAP	104	192	3
TAP	104	192	4
TTP	104	288	1	E	0	M1
TTP	104	288	1	B	0	M1
TTP	104	288	6	B	0	M1
TTP	104	288	7	E	0	M1
TAP	105	0	4
TAP	105	0	5
TTP	105	96	0	E	0	M1
TTP	105	96	0	B	0	M1
TTP	105	96	1	B	0	M1
TTP	105	96	2	E	0	M1
TAP	105	192	2
TAP	105	192	3
TTP	105	288	0	E	0	M1
TTP	105	288	6	E	0	M1
TTP	105	288	6	B	0	M1
TTP	105	288	7	B	0	M1
XTP	106	0	2
HLD	106	0	4	192
XTP	106	96	1
XST	106	192	0
SUL	106	192	0	96	24	4
SUR	106	192	0	96	24	4
TTP	106	294	0	B	0	M1
TTP	106	300	0	C	1	M1
TTP	106	306	4	B	0	M1
XST	107	0	6
SI_	107	0	6	96	48	4
XTP	107	96	6
TAP	107	96	7
STR	107	192	7
SI_	107	192	7	96	48	3
TAP	107	288	0
TAP	107	288	7
STR	108	0	0
SI_	108	0	0	96	48	2
TAP	108	96	0
TAP	108	96	2
TAP	108	192	3
TAP	108	192	4
TAP	108	288	5
TAP	108	288	6
TAP	109	0	0
XST	109	0	1
SI_	109	0	1	96	48	3
TAP	109	96	0
XTP	109	96	1
STR	109	192	0
SI_	109	192	0	96	48	4
TAP	109	288	0
TAP	109	288	7
STR	110	0	7
SI_	110	0	7	96	48	5
TAP	110	96	5
TAP	110	96	7
TAP	110	192	3
TAP	110	192	4
STR	110	288	1
SI_	110	288	1	96	48	4
STR	110	288	6
SI_	110	288	6	96	48	3
BRK	111	96	0
BRK	111	96	7
XST	111	192	2
SI_	111	192	2	96	48	4
XTP	111	192	6
TAP	111	288	0
TAP	111	288	2
STR	112	0	0
SI_	112	0	0	96	48	6
TAP	112	96	0
TAP	112	96	1
STR	112	192	1
SI_	112	192	1	96	48	5
TAP	112	288	1
TAP	112	288	5
XST	113	0	7
SCL	113	0	7	96	96	3
XTP	113	96	2
STR	113	192	0
SCR	113	192	0	96	96	4
TAP	113	288	5
TAP	114	0	7
TAP	114	48	6
TAP	114	96	2
TAP	114	96	5
TAP	114	144	1
TAP	114	144	4
HLD	114	192	0	96
TAP	114	192	3
BRK	114	288	7
STR	115	0	6
SI_	115	0	6	96	48	4
TAP	115	48	6
STR	115	96	2
SI_	115	96	2	96	48	0
TAP	115	144	2
TAP	115	192	7
TAP	115	240	7
TAP	115	288	3
TAP	115	288	7
STR	116	0	5
SI_	116	0	5	96	48	3
TAP	116	48	5
STR	116	96	1
SI_	116	96	1	96	48	7
TAP	116	144	1
TAP	116	192	6
TAP	116	240	6
TAP	116	288	2
TAP	116	288	6
STR	117	0	0
SI_	117	0	0	96	48	6
TAP	117	48	0
STR	117	96	4
SI_	117	96	4	96	48	2
TAP	117	144	4
TAP	117	192	1
TAP	117	240	1
TAP	117	288	1
TAP	117	288	5
STR	118	0	0
SI_	118	0	0	96	48	2
STR	118	0	7
SI_	118	0	7	96	48	5
STR	118	96	0
SI_	118	96	0	96	48	4
STR	118	96	7
SI_	118	96	7	96	48	3
BRK	118	192	0
BRK	118	192	7
STR	119	0	2
SI_	119	0	2	96	48	6
TAP	119	48	2
STR	119	96	7
SI_	119	96	7	96	48	3
TAP	119	144	7
TAP	119	192	1
TAP	119	240	1
TAP	119	288	1
TAP	119	336	1
STR	120	0	6
SI_	120	0	6	96	48	2
TAP	120	48	6
STR	120	96	3
SI_	120	96	3	96	48	7
TAP	120	144	3
TAP	120	192	5
TAP	120	240	5
TAP	120	288	5
TAP	120	336	5
TAP	121	0	1
TAP	121	48	1
TAP	121	96	3
TAP	121	144	3
TAP	121	192	5
TAP	121	240	5
TAP	121	288	7
TAP	121	336	7
TAP	122	0	2
BRK	122	0	7
TAP	122	24	6
TAP	122	48	5
TAP	122	72	4
BRK	122	96	1
TAP	122	120	2
TAP	122	144	3
TAP	122	168	4
BRK	122	192	0
TAP	122	216	7
TAP	122	240	6
TAP	122	264	5
BRK	122	288	3
TAP	122	312	2
TAP	122	336	1
TAP	122	360	0
TTP	123	0	0	C	1	M1

T_REC_TAP	499
T_REC_BRK	30
T_REC_XTP	19
T_REC_HLD	44
T_REC_XHO	3
T_REC_STR	90
T_REC_BST	0
T_REC_XST	14
T_REC_TTP	106
T_REC_THO	3
T_REC_SLD	107
T_REC_ALL	915
T_NUM_TAP	728
T_NUM_BRK	30
T_NUM_HLD	50
T_NUM_SLD	107
T_NUM_ALL	915
T_JUDGE_TAP	758
T_JUDGE_HLD	82
T_JUDGE_SLD	107
T_JUDGE_ALL	947
TTM_EACHPAIRS	145
TTM_SCR_TAP	364000
TTM_SCR_BRK	78000
TTM_SCR_HLD	50000
TTM_SCR_SLD	160500
TTM_SCR_ALL	652500
TTM_SCR_S	630050
TTM_SCR_SS	649500
TTM_RAT_ACV	10046

