VERSION	0.00.00	1.03.00
FES_MODE	0
BPM_DEF	128.000	256.000	256.000	128.000
MET_DEF	4	4
RESOLUTION	384
CLK_DEF	384
COMPATIBLE_CODE	MA2

BPM	0	0	128.000
BPM	5	0	256.000
BPM	13	0	128.000
BPM	17	0	256.000
BPM	41	0	176.000
BPM	51	0	256.000
BPM	103	0	128.000
BPM	107	0	256.000
MET	0	0	4	4

HLD	1	0	5	96
HLD	1	96	4	96
TAP	1	192	5
TAP	1	288	3
TAP	1	288	6
HLD	2	0	2	96
HLD	2	96	3	96
TAP	2	192	2
TAP	2	288	1
TAP	2	288	4
HLD	3	0	5	96
HLD	3	96	4	96
TAP	3	192	5
TAP	3	288	3
TAP	3	288	6
BRK	4	0	2
BRK	4	96	1
BRK	4	192	0
TTP	4	288	0	C	1	M1
TAP	5	0	6
TAP	5	96	6
TAP	5	96	7
TAP	5	192	5
TAP	5	288	4
TAP	5	288	5
TAP	6	0	6
TAP	6	96	5
TAP	6	192	4
TAP	6	288	3
TAP	6	288	6
TAP	7	0	2
TAP	7	96	2
TAP	7	96	3
TAP	7	192	5
TAP	7	288	4
TAP	7	288	5
TAP	8	0	6
TAP	8	96	7
TAP	8	192	0
TAP	8	192	5
TAP	9	0	1
TAP	9	96	0
TAP	9	96	1
TAP	9	192	2
TAP	9	288	2
TAP	9	288	3
TAP	10	0	1
TAP	10	96	2
TAP	10	192	3
TAP	10	288	1
TAP	10	288	4
TAP	11	0	5
TAP	11	96	4
TAP	11	96	5
TAP	11	192	2
TAP	11	288	2
TAP	11	288	3
TAP	12	0	1
TAP	12	0	6
TAP	12	96	1
TAP	12	96	6
BRK	12	192	1
BRK	12	192	6
XTP	13	0	3
XTP	13	0	4
TAP	13	96	2
TAP	13	96	5
TAP	13	192	4
TAP	13	240	3
TAP	13	288	2
TAP	13	288	5
TAP	14	0	2
TAP	14	0	3
TAP	14	96	1
TAP	14	96	4
TAP	14	192	2
TAP	14	240	3
TAP	14	288	1
TAP	14	288	4
TAP	15	0	4
TAP	15	0	5
TAP	15	96	3
TAP	15	96	6
TAP	15	192	5
TAP	15	240	4
TAP	15	288	3
TAP	15	288	6
TAP	16	0	3
TAP	16	0	4
STR	16	96	0
SI_	16	96	0	96	96	3
STR	16	96	7
SI_	16	96	7	96	96	4
TAP	17	0	2
TAP	17	96	2
TAP	17	192	3
TAP	17	288	3
TAP	18	0	5
TAP	18	96	4
TAP	18	96	5
TAP	18	192	2
TAP	18	288	2
TAP	18	288	3
TAP	19	0	5
TAP	19	96	5
TAP	19	192	4
TAP	19	288	4
STR	20	0	3
SI_	20	0	3	96	96	0
BRK	20	192	7
TAP	21	0	5
TAP	21	96	5
TAP	21	192	4
TAP	21	288	4
TAP	22	0	2
TAP	22	96	2
TAP	22	96	3
TAP	22	192	5
TAP	22	288	4
TAP	22	288	5
TAP	23	0	2
TAP	23	96	2
TAP	23	192	3
TAP	23	288	3
STR	24	0	4
SI_	24	0	4	96	96	7
STR	24	192	3
SI_	24	192	3	96	96	0
HLD	25	0	7	192
HLD	25	192	4	192
TTP	26	0	5	E	0	M1
TTP	26	96	6	E	0	M1
TTP	26	192	4	E	0	M1
TTP	26	192	7	E	0	M1
HLD	27	0	6	192
HLD	27	192	7	192
TTP	28	0	0	C	0	M1
TAP	28	192	3
TAP	28	192	4
HLD	29	0	0	192
HLD	29	192	3	192
TTP	30	0	3	E	0	M1
TTP	30	96	2	E	0	M1
TTP	30	192	1	E	0	M1
TTP	30	192	4	E	0	M1
HLD	31	0	1	192
HLD	31	192	0	192
TTP	32	0	0	C	0	M1
BRK	32	192	2
BRK	32	192	7
TAP	33	0	5
TAP	33	96	5
HLD	33	192	5	144
TAP	33	336	4
TAP	34	48	4
TAP	34	144	4
TAP	34	240	4
TAP	34	240	5
TAP	34	288	4
TAP	34	288	5
TAP	35	0	6
TAP	35	96	6
HLD	35	192	6	144
TAP	35	336	7
TAP	36	48	7
TAP	36	144	0
TAP	36	144	5
BRK	36	192	0
BRK	36	192	5
TAP	37	0	2
TAP	37	96	2
HLD	37	192	2	144
TAP	37	336	3
TAP	38	48	3
TAP	38	144	3
TAP	38	240	2
TAP	38	240	3
TAP	38	288	2
TAP	38	288	3
TAP	39	0	1
TAP	39	96	1
HLD	39	192	1	144
TAP	39	336	0
TAP	40	48	0
TAP	40	144	2
TAP	40	144	7
BRK	40	192	2
BRK	40	192	7
TAP	43	0	4
TAP	43	0	5
TAP	43	48	5
TAP	43	96	5
TAP	43	144	5
TAP	43	192	3
TAP	43	192	5
TAP	43	240	5
TAP	43	288	5
TAP	43	336	4
TAP	43	336	5
TAP	44	0	5
TAP	44	48	4
TAP	44	48	5
TAP	44	96	5
TAP	44	144	5
TAP	44	192	3
TAP	44	192	5
TAP	45	0	5
TAP	45	0	6
TAP	45	48	6
TAP	45	96	6
TAP	45	144	6
TAP	45	192	4
TAP	45	192	6
TAP	45	240	6
TAP	45	288	6
TAP	45	336	5
TAP	45	336	6
TAP	46	0	6
TAP	46	48	5
TAP	46	48	6
TAP	46	96	6
TAP	46	144	6
TAP	46	192	4
TAP	46	192	6
TAP	47	0	2
TAP	47	0	3
TAP	47	48	2
TAP	47	96	2
TAP	47	144	2
TAP	47	192	2
TAP	47	192	4
TAP	47	240	2
TAP	47	288	2
TAP	47	336	2
TAP	47	336	3
TAP	48	0	2
TAP	48	48	2
TAP	48	48	3
TAP	48	96	2
TAP	48	144	2
TAP	48	192	2
TAP	48	192	4
TAP	49	0	1
TAP	49	0	2
TAP	49	48	1
TAP	49	96	1
TAP	49	144	1
TAP	49	192	1
TAP	49	192	3
TAP	49	240	1
TAP	49	288	1
TAP	49	336	1
TAP	49	336	2
TAP	50	0	1
TAP	50	48	1
TAP	50	48	2
TAP	50	96	1
TAP	50	144	1
BRK	50	192	1
BRK	50	192	6
TAP	51	0	4
TAP	51	0	5
TAP	51	96	4
TAP	51	96	5
TAP	51	192	6
TAP	51	192	7
TAP	51	288	6
TAP	51	288	7
TAP	52	0	4
TAP	52	0	5
TAP	52	96	6
TAP	52	96	7
TAP	52	192	4
TAP	52	192	5
TAP	52	288	6
TAP	52	288	7
TAP	53	0	4
TAP	53	0	5
TAP	53	96	4
TAP	53	96	5
TAP	53	192	2
TAP	53	192	3
TAP	53	288	2
TAP	53	288	3
TAP	54	0	0
TAP	54	0	1
TAP	54	96	0
TAP	54	96	1
BRK	54	192	2
BRK	54	192	7
TAP	55	0	2
TAP	55	0	3
TAP	55	96	2
TAP	55	96	3
TAP	55	192	0
TAP	55	192	1
TAP	55	288	0
TAP	55	288	1
TAP	56	0	2
TAP	56	0	3
TAP	56	96	0
TAP	56	96	1
TAP	56	192	2
TAP	56	192	3
TAP	56	288	0
TAP	56	288	1
TAP	57	0	2
TAP	57	0	3
TAP	57	96	2
TAP	57	96	3
TAP	57	192	4
TAP	57	192	5
TAP	57	288	4
TAP	57	288	5
XTP	58	0	6
XTP	58	48	7
XTP	58	96	6
XTP	58	144	7
XTP	58	192	6
XTP	58	240	7
BRK	58	288	6
TAP	59	0	3
TAP	59	0	5
TAP	59	96	4
TAP	59	96	6
TAP	59	192	3
TAP	59	192	5
TAP	59	288	4
TAP	59	288	6
TAP	60	0	2
TAP	60	48	3
TAP	60	96	2
TAP	60	192	5
TAP	60	240	4
TAP	60	288	5
TAP	61	0	2
TAP	61	0	4
TAP	61	96	1
TAP	61	96	3
TAP	61	192	2
TAP	61	192	4
TAP	61	288	1
TAP	61	288	3
TAP	62	0	1
TAP	62	48	0
TAP	62	96	1
BRK	62	192	3
BRK	62	192	7
TAP	63	0	2
TAP	63	0	4
TAP	63	96	1
TAP	63	96	3
TAP	63	192	2
TAP	63	192	4
TAP	63	288	1
TAP	63	288	3
TAP	64	0	5
TAP	64	48	4
TAP	64	96	5
TAP	64	192	2
TAP	64	240	3
TAP	64	288	2
TAP	65	0	3
TAP	65	0	5
TAP	65	96	4
TAP	65	96	6
TAP	65	192	3
TAP	65	192	5
TAP	65	288	4
TAP	65	288	6
XTP	66	0	7
XTP	66	48	0
XTP	66	96	7
XTP	66	144	0
XTP	66	192	7
XTP	66	240	0
XTP	66	288	7
XTP	66	336	0
THO	67	0	0	1104	C	0	M1
TTP	67	336	0	B	0	M1
TTP	69	0	7	B	0	M1
TTP	69	336	3	B	0	M1
TTP	69	336	4	B	0	M1
BRK	70	192	1
BRK	70	192	6
TAP	71	0	3
TAP	71	48	3
TAP	71	144	4
TAP	71	144	5
TAP	71	240	5
TAP	71	288	5
HLD	72	0	6	96
HLD	72	96	7	96
TAP	72	192	6
TAP	72	288	0
TAP	72	288	5
STR	73	0	3
SI_	73	0	3	96	96	1
TAP	73	0	4
STR	73	192	7
SI_	73	192	7	96	96	5
TAP	74	0	3
TAP	74	96	2
BRK	74	192	1
BRK	74	192	4
TAP	75	0	4
TAP	75	0	5
TAP	75	96	6
TAP	75	192	0
TAP	75	192	7
TAP	75	288	1
HLD	76	0	2	96
HLD	76	96	3	96
HLD	76	192	4	96
TAP	76	288	5
TAP	77	0	6
TAP	77	0	7
TAP	77	96	0
TAP	77	96	5
TAP	77	192	2
TAP	77	240	3
TAP	77	288	2
HLD	78	0	1	96
HLD	78	0	4	96
BRK	78	144	0
BRK	78	144	5
TAP	79	0	4
TAP	79	48	4
TAP	79	144	2
TAP	79	144	3
TAP	79	240	2
TAP	79	288	2
HLD	80	0	1	96
HLD	80	96	0	96
TAP	80	192	1
TAP	80	288	2
TAP	80	288	7
TAP	81	0	3
STR	81	0	4
SI_	81	0	4	96	96	6
STR	81	192	0
SI_	81	192	0	96	96	2
TAP	82	0	4
TAP	82	96	5
BRK	82	192	3
BRK	82	192	6
TAP	83	0	2
TAP	83	0	3
TAP	83	96	1
TAP	83	192	0
TAP	83	192	7
TAP	83	288	6
HLD	84	0	5	96
HLD	84	96	4	96
HLD	84	192	3	96
TAP	84	288	2
TAP	85	0	1
TAP	85	48	1
TAP	85	144	0
TAP	85	144	7
TAP	85	240	6
TAP	85	288	6
TAP	86	0	3
TAP	86	0	5
TAP	86	96	2
TAP	86	96	4
BRK	86	192	1
BRK	86	192	6
TAP	87	0	3
TAP	87	48	3
TAP	87	144	4
TAP	87	144	6
TAP	87	240	7
TAP	87	288	7
HLD	88	0	6	96
TAP	88	96	7
TAP	88	144	6
TAP	88	192	7
TAP	88	288	0
TAP	88	288	5
STR	89	0	2
SI_	89	0	2	96	96	5
TAP	89	0	3
STR	89	192	6
SI_	89	192	6	96	96	1
TAP	90	0	2
TAP	90	96	3
BRK	90	192	1
BRK	90	192	4
TAP	91	0	3
TAP	91	0	4
TAP	91	96	5
TAP	91	192	6
TAP	91	192	7
TAP	91	288	0
HLD	92	0	1	96
HLD	92	96	3	96
HLD	92	192	4	96
TAP	92	288	6
TAP	93	0	6
TAP	93	0	7
TAP	93	96	0
TAP	93	96	5
TAP	93	192	2
TAP	93	240	3
TAP	93	288	2
HLD	94	0	1	96
HLD	94	0	4	96
BRK	94	144	0
BRK	94	144	5
TAP	95	0	4
TAP	95	48	4
TAP	95	144	1
TAP	95	144	3
TAP	95	240	0
TAP	95	288	0
HLD	96	0	1	96
TAP	96	96	0
TAP	96	144	1
TAP	96	192	0
TAP	96	288	2
TAP	96	288	7
TAP	97	0	4
STR	97	0	5
SI_	97	0	5	96	96	2
STR	97	192	1
SI_	97	192	1	96	96	6
TAP	98	0	5
TAP	98	96	4
BRK	98	192	3
BRK	98	192	6
TAP	99	0	3
TAP	99	0	4
TAP	99	96	2
TAP	99	192	0
TAP	99	192	1
TAP	99	288	7
XTP	100	0	6
XTP	100	48	6
XTP	100	96	4
XTP	100	144	4
XTP	100	192	3
XTP	100	240	3
XTP	100	288	1
TAP	101	0	0
HLD	101	0	7	384
TAP	102	0	3
TAP	102	96	4
BRK	102	192	1
BRK	102	192	6
TTP	103	0	4	B	0	M1
TTP	103	0	5	B	0	M1
TTP	103	96	4	E	0	M1
TTP	103	96	6	E	0	M1
TTP	103	192	3	B	0	M1
TTP	103	240	2	B	0	M1
TTP	103	288	2	E	0	M1
TTP	103	288	4	E	0	M1
TTP	104	0	6	B	0	M1
TTP	104	0	7	B	0	M1
TTP	104	96	0	E	0	M1
TTP	104	96	6	E	0	M1
TTP	104	192	0	B	0	M1
TTP	104	240	1	B	0	M1
TTP	104	288	0	E	0	M1
TTP	104	288	2	E	0	M1
TTP	105	0	3	B	0	M1
TTP	105	0	4	B	0	M1
TTP	105	96	3	E	0	M1
TTP	105	96	5	E	0	M1
TTP	105	192	0	B	0	M1
TTP	105	240	7	B	0	M1
TTP	105	288	1	E	0	M1
TTP	105	288	7	E	0	M1
BRK	106	0	2
BRK	106	96	1
BRK	106	192	0
TTP	106	288	0	C	1	M1
XTP	107	0	0
XTP	107	0	7
TAP	107	96	0
TAP	107	96	7
TAP	107	192	1
TAP	107	192	3
TAP	107	288	1
TAP	107	288	3
TAP	108	0	4
TAP	108	0	5
TAP	108	96	1
TAP	108	96	3
TAP	108	192	4
TAP	108	192	5
TAP	108	288	1
TAP	108	288	3
XTP	109	0	0
XTP	109	0	7
TAP	109	96	0
TAP	109	96	7
TAP	109	192	4
TAP	109	192	6
TAP	109	288	4
TAP	109	288	6
TAP	110	0	2
TAP	110	0	3
TAP	110	96	4
TAP	110	96	6
STR	110	192	2
SCL	110	192	2	96	96	7
STR	110	192	3
SCR	110	192	3	96	96	6
BRK	111	96	0
BRK	111	96	5
TAP	111	192	1
TAP	111	192	3
TAP	111	288	1
TAP	111	288	3
TAP	112	0	4
TAP	112	0	5
TAP	112	96	1
TAP	112	96	3
TAP	112	192	4
TAP	112	192	5
TAP	112	288	1
TAP	112	288	3
XTP	113	0	0
XTP	113	0	7
TAP	113	96	0
TAP	113	96	7
TAP	113	192	4
TAP	113	192	6
TAP	113	288	4
TAP	113	288	6
TAP	114	0	7
TAP	114	48	0
TAP	114	96	7
TAP	114	144	0
TAP	114	192	7
BRK	114	288	1
BRK	114	288	6
XTP	115	0	0
TAP	115	48	0
TAP	115	96	6
TAP	115	144	6
TAP	115	192	2
TAP	115	240	2
TAP	115	288	4
TAP	115	336	4
TAP	116	0	1
TAP	116	48	1
TAP	116	96	1
TAP	116	96	3
TAP	116	192	6
TAP	116	240	6
TAP	116	288	4
TAP	116	288	6
XTP	117	0	7
TAP	117	48	7
TAP	117	96	1
TAP	117	144	1
TAP	117	192	5
TAP	117	240	5
TAP	117	288	3
TAP	117	336	3
TAP	118	0	4
TAP	118	48	4
TAP	118	96	3
TAP	118	96	4
TTP	118	192	0	C	1	M1
TTP	118	192	2	B	0	M1
TTP	118	192	5	B	0	M1
XTP	119	0	0
TAP	119	48	0
TAP	119	96	6
TAP	119	144	6
TAP	119	192	2
TAP	119	240	2
TAP	119	288	4
TAP	119	336	4
XTP	120	0	1
TAP	120	48	1
TAP	120	96	7
TAP	120	144	7
TAP	120	192	3
TAP	120	240	3
TAP	120	288	5
TAP	120	336	5
XTP	121	0	0
TAP	121	48	0
XTP	121	96	2
TAP	121	144	2
XTP	121	192	4
TAP	121	240	4
XTP	121	288	6
TAP	121	336	6
TTP	122	0	1	E	0	M1
TTP	122	24	2	E	0	M1
TTP	122	48	3	E	0	M1
TTP	122	72	4	E	0	M1
TTP	122	96	5	E	0	M1
TTP	122	120	6	E	0	M1
TTP	122	144	7	E	0	M1
TTP	122	168	0	E	0	M1
TTP	122	192	1	E	0	M1
TTP	123	0	0	C	1	M1
TTP	123	0	1	B	0	M1
TTP	123	0	2	B	0	M1
TTP	123	0	5	B	0	M1
TTP	123	0	6	B	0	M1

T_REC_TAP	501
T_REC_BRK	44
T_REC_XTP	37
T_REC_HLD	38
T_REC_XHO	0
T_REC_STR	15
T_REC_BST	0
T_REC_XST	0
T_REC_TTP	57
T_REC_THO	1
T_REC_SLD	15
T_REC_ALL	708
T_NUM_TAP	610
T_NUM_BRK	44
T_NUM_HLD	39
T_NUM_SLD	15
T_NUM_ALL	708
T_JUDGE_TAP	654
T_JUDGE_HLD	71
T_JUDGE_SLD	15
T_JUDGE_ALL	740
TTM_EACHPAIRS	175
TTM_SCR_TAP	305000
TTM_SCR_BRK	114400
TTM_SCR_HLD	39000
TTM_SCR_SLD	22500
TTM_SCR_ALL	480900
TTM_SCR_S	462250
TTM_SCR_SS	476500
TTM_RAT_ACV	10092

