VERSION	0.00.00	1.03.00
FES_MODE	0
BPM_DEF	128.000	256.000	256.000	128.000
MET_DEF	4	4
RESOLUTION	384
CLK_DEF	384
COMPATIBLE_CODE	MA2

BPM	0	0	128.000
BPM	5	0	256.000
BPM	13	0	128.000
BPM	17	0	256.000
BPM	41	0	176.000
BPM	51	0	256.000
BPM	103	0	128.000
BPM	107	0	256.000
MET	0	0	4	4

STR	1	0	0
SI_	1	0	0	96	144	3
STR	2	0	4
SI_	2	0	4	96	144	7
STR	3	0	0
SUL	3	0	0	96	144	3
XTP	4	0	2
XTP	4	96	1
BRK	4	192	0
TAP	5	0	3
TAP	5	192	4
HLD	6	0	5	192
TAP	6	192	4
TAP	7	0	4
TAP	7	192	3
HLD	8	0	2	192
TAP	8	192	3
TAP	9	0	0
TAP	9	192	7
HLD	10	0	6	192
TAP	10	192	7
TAP	11	0	0
TAP	11	192	0
TAP	11	192	7
BRK	12	0	1
BRK	12	0	6
TTP	13	0	4	E	0	L1
TTP	13	192	1	B	0	L1
TTP	13	192	2	E	0	L1
TTP	14	0	4	B	0	L1
TTP	14	192	6	B	0	L1
TTP	14	192	6	E	0	L1
TTP	15	0	0	E	0	L1
TTP	15	192	2	E	0	L1
TTP	15	192	6	E	0	L1
THO	16	0	0	192	C	0	L1
TAP	17	0	1
TAP	17	192	1
TAP	17	192	3
HLD	18	0	2	192
TAP	18	192	3
TAP	19	0	6
TAP	19	192	4
TAP	19	192	6
HLD	20	0	5	192
TAP	20	192	4
TAP	21	0	2
TAP	21	0	3
TAP	21	192	1
TAP	21	192	4
TAP	22	0	0
TAP	22	96	0
TAP	22	192	0
TAP	23	0	0
TAP	23	0	7
STR	23	192	1
SI_	23	192	1	96	288	4
STR	23	192	6
SI_	23	192	6	96	288	3
HLD	25	0	5	192
HLD	25	192	4	192
TAP	26	0	3
TAP	26	192	3
TAP	26	192	4
HLD	27	0	2	192
HLD	27	192	1	192
TAP	28	0	0
TAP	28	192	0
TAP	28	192	7
HLD	29	0	6	192
HLD	29	192	5	192
TAP	30	0	4
TAP	30	192	4
TAP	30	192	5
HLD	31	0	3	192
HLD	31	0	5	192
HLD	32	0	2	192
HLD	32	0	4	192
TAP	33	0	2
TAP	33	0	3
HLD	33	192	2	192
TAP	33	192	3
TAP	34	0	3
TAP	34	192	3
TAP	34	192	4
TAP	35	0	4
TAP	35	0	5
TAP	35	192	4
HLD	35	192	5	192
TAP	36	0	4
TAP	36	192	3
TAP	36	192	6
TAP	37	0	0
TAP	37	0	1
TAP	37	192	0
HLD	37	192	1	192
TAP	38	0	0
TAP	38	192	2
TAP	38	192	7
TAP	39	0	1
TAP	39	0	6
TAP	39	192	0
TAP	39	192	5
HLD	40	0	3	768
HLD	40	0	4	384
XST	43	0	2
SI_	43	0	2	96	192	0
STR	44	0	7
SI_	44	0	7	96	192	5
STR	45	0	4
SI_	45	0	4	96	192	2
TAP	46	0	0
TAP	46	96	0
TAP	46	192	0
STR	47	0	1
SI_	47	0	1	96	192	3
STR	48	0	4
SI_	48	0	4	96	192	6
STR	49	0	7
SI_	49	0	7	96	192	1
THO	50	0	0	192	C	0	L1
TAP	51	0	7
TAP	51	96	7
STR	51	192	7
SUR	51	192	7	96	336	4
TAP	53	0	3
TAP	53	96	3
STR	53	192	3
SUR	53	192	3	96	336	0
TAP	55	0	7
TAP	55	96	7
STR	55	192	7
SUR	55	192	7	96	336	5
TAP	57	0	4
TAP	57	96	4
STR	57	192	4
SI_	57	192	4	96	288	1
SI_	57	192	4	96	288	7
TAP	59	0	0
TAP	59	96	0
TAP	59	192	0
TAP	60	0	1
TAP	60	0	7
TAP	60	96	1
TAP	60	96	7
TAP	60	192	1
TAP	60	192	7
TAP	61	0	2
TAP	61	96	2
TAP	61	192	2
TAP	62	0	1
TAP	62	0	3
TAP	62	96	1
TAP	62	96	3
XTP	62	192	1
XTP	62	192	3
TAP	63	0	5
TAP	63	96	5
TAP	63	192	4
TAP	64	0	3
TAP	64	0	6
TAP	64	96	3
TAP	64	96	6
TAP	64	192	3
TAP	64	192	6
TAP	65	0	1
TAP	65	96	1
TAP	65	192	0
TAP	66	0	0
TAP	66	0	7
TAP	66	96	0
TAP	66	96	7
BRK	66	192	1
BRK	66	192	6
TTP	67	0	3	B	0	L1
TTP	67	0	4	B	0	L1
TTP	68	0	2	B	0	L1
TTP	68	0	3	B	0	L1
TTP	69	0	5	B	0	L1
TTP	69	0	6	B	0	L1
THO	70	0	0	192	C	0	L1
TAP	71	0	7
TAP	71	96	7
TAP	71	192	6
TAP	71	288	6
TAP	72	0	4
TAP	72	0	5
TAP	72	192	3
TAP	72	192	6
TAP	73	0	3
TAP	73	96	3
TAP	73	192	2
TAP	73	288	2
TAP	74	0	0
TAP	74	0	1
TAP	74	192	2
TAP	74	192	7
TAP	75	0	6
TAP	75	96	6
TAP	75	192	6
TAP	75	192	7
TAP	76	0	1
TAP	76	96	1
TAP	76	192	0
TAP	76	192	1
HLD	77	0	2	192
HLD	77	192	3	192
TAP	78	0	4
TAP	78	192	3
TAP	78	192	4
TAP	79	0	5
TAP	79	96	5
TAP	79	192	6
TAP	79	288	6
TAP	80	0	0
TAP	80	0	7
TAP	80	192	1
TAP	80	192	6
TAP	81	0	1
TAP	81	96	1
TAP	81	192	2
TAP	81	288	2
TAP	82	0	3
TAP	82	0	4
TAP	82	192	1
TAP	82	192	6
HLD	83	0	2	192
TAP	83	192	3
HLD	84	0	6	192
TAP	84	192	4
XTP	85	0	2
XTP	85	192	1
XHO	86	0	0	192
BRK	86	192	7
XTP	87	0	6
TAP	87	96	6
XTP	87	192	5
TAP	87	288	5
XTP	88	0	4
TAP	88	96	4
XTP	88	192	3
XTP	88	192	5
XTP	89	0	2
TAP	89	96	2
XTP	89	192	1
TAP	89	288	1
XTP	90	0	0
TAP	90	96	0
XTP	90	192	0
XTP	90	192	7
XTP	91	0	1
TAP	91	96	1
XTP	91	192	2
TAP	91	288	2
XTP	92	0	3
TAP	92	96	3
XTP	92	192	4
TAP	92	288	4
XTP	93	0	5
TAP	93	96	5
XTP	93	192	6
TAP	93	288	6
XTP	94	0	1
XTP	94	0	7
BRK	94	192	2
BRK	94	192	6
TAP	95	0	1
TAP	95	96	1
TAP	95	192	1
TAP	95	192	3
TAP	96	0	6
TAP	96	96	6
TAP	96	192	4
TAP	96	192	6
TAP	97	0	2
TAP	97	96	2
TAP	97	192	3
TAP	97	288	3
TAP	98	0	4
TAP	98	0	5
TAP	98	96	4
TAP	98	96	5
TAP	98	192	3
TAP	98	192	6
TAP	99	0	3
TAP	99	0	4
TAP	99	96	3
TAP	99	96	4
TAP	99	192	2
TAP	99	192	5
TAP	99	288	2
TAP	99	288	5
XTP	100	0	1
XTP	100	0	6
XTP	100	96	1
XTP	100	96	6
XTP	100	192	0
XTP	100	192	7
XST	100	288	0
SLL	100	288	0	96	576	4
XST	100	288	7
SLR	100	288	7	96	576	3
TTP	103	0	4	E	0	L1
TTP	103	96	0	C	0	L1
TTP	103	192	6	B	0	L1
TTP	103	192	7	B	0	L1
TTP	104	0	4	E	0	L1
TTP	104	96	0	C	0	L1
TTP	104	192	0	B	0	L1
TTP	104	192	1	B	0	L1
TTP	105	0	6	B	0	L1
TTP	105	96	5	B	0	L1
TTP	105	192	4	B	0	L1
TTP	105	288	3	B	0	L1
TTP	106	0	2	B	0	L1
TTP	106	96	1	B	0	L1
TTP	106	192	0	B	0	L1
TTP	106	288	0	C	1	L1
XST	107	0	7
SI_	107	0	7	96	288	3
TAP	108	192	1
TAP	108	192	4
STR	109	0	2
SCL	109	0	2	96	288	7
TAP	110	192	6
TAP	111	0	7
XST	111	96	7
SI_	111	96	7	96	288	2
SI_	111	96	7	96	288	4
XTP	112	192	3
TAP	113	0	3
TAP	113	0	4
HLD	113	192	2	192
HLD	113	192	5	192
BRK	114	192	1
BRK	114	192	6
TAP	115	0	0
TAP	115	96	0
TAP	115	192	1
TAP	115	288	1
TAP	116	0	2
TAP	116	0	3
TAP	116	96	2
TAP	116	96	3
TAP	116	192	3
TAP	116	192	4
TAP	116	288	3
TAP	116	288	4
TAP	117	0	5
TAP	117	96	5
TAP	117	192	6
TAP	117	288	6
TAP	118	0	0
TAP	118	0	7
TAP	118	96	0
TAP	118	96	7
XTP	118	192	1
XTP	118	192	6
TAP	119	0	6
TAP	119	0	7
TAP	119	96	6
TAP	119	96	7
TAP	119	192	4
TAP	119	192	5
TAP	119	288	4
TAP	119	288	5
TAP	120	0	2
TAP	120	0	3
TAP	120	96	2
TAP	120	96	3
TAP	120	192	0
TAP	120	192	1
TAP	120	288	0
TAP	120	288	1
TAP	121	0	0
TAP	121	0	7
TAP	121	96	0
TAP	121	96	7
TAP	121	192	1
TAP	121	192	6
TAP	121	288	1
TAP	121	288	6
TAP	122	0	2
TAP	122	0	5
TAP	122	96	2
TAP	122	96	5
XTP	122	192	3
XTP	122	192	4
BRK	123	0	1
BRK	123	0	6

T_REC_TAP	240
T_REC_BRK	12
T_REC_XTP	35
T_REC_HLD	26
T_REC_XHO	1
T_REC_STR	15
T_REC_BST	0
T_REC_XST	5
T_REC_TTP	31
T_REC_THO	3
T_REC_SLD	22
T_REC_ALL	390
T_NUM_TAP	326
T_NUM_BRK	12
T_NUM_HLD	30
T_NUM_SLD	22
T_NUM_ALL	390
T_JUDGE_TAP	338
T_JUDGE_HLD	76
T_JUDGE_SLD	22
T_JUDGE_ALL	436
TTM_EACHPAIRS	92
TTM_SCR_TAP	163000
TTM_SCR_BRK	31200
TTM_SCR_HLD	30000
TTM_SCR_SLD	33000
TTM_SCR_ALL	257200
TTM_SCR_S	248350
TTM_SCR_SS	256000
TTM_RAT_ACV	10046

