VERSION	0.00.00	1.03.00
FES_MODE	0
BPM_DEF	128.000	256.000	256.000	128.000
MET_DEF	4	4
RESOLUTION	384
CLK_DEF	384
COMPATIBLE_CODE	MA2

BPM	0	0	128.000
BPM	5	0	256.000
BPM	13	0	128.000
BPM	17	0	256.000
BPM	41	0	176.000
BPM	51	0	256.000
BPM	103	0	128.000
BPM	107	0	256.000
MET	0	0	4	4

TAP	5	0	0
TAP	5	192	0
TAP	6	0	0
TAP	7	0	0
TAP	7	192	0
TAP	8	0	0
TAP	9	0	7
TAP	9	192	7
TAP	10	0	7
TAP	11	0	7
TAP	11	192	7
TAP	12	0	7
HLD	13	0	0	192
TAP	14	0	1
TAP	14	96	1
TAP	14	192	1
HLD	15	0	2	192
TAP	16	0	3
TAP	16	96	3
XTP	16	192	3
XTP	16	192	4
TAP	17	0	4
TAP	17	192	4
TAP	18	0	4
TAP	19	0	5
TAP	19	192	5
TAP	20	0	5
TAP	21	0	6
TAP	21	192	6
TAP	22	0	6
TAP	23	0	7
TAP	23	192	7
TAP	24	0	7
STR	25	0	0
SI_	25	0	0	96	672	3
STR	29	0	7
SI_	29	0	7	96	672	4
TAP	33	0	0
TAP	33	192	0
TAP	34	0	0
TAP	35	0	7
TAP	35	192	7
TAP	36	0	7
TAP	37	0	0
TAP	37	192	0
TAP	38	0	7
TAP	38	192	7
TAP	39	0	0
TAP	39	0	7
TAP	39	192	0
TAP	39	192	7
XTP	40	0	1
XTP	40	0	6
THO	41	0	0	384	C	0	L1
TAP	43	0	5
TAP	43	192	5
TAP	44	0	5
TAP	45	0	4
TAP	45	192	4
TAP	46	0	4
TAP	47	0	3
TAP	47	192	3
TAP	48	0	2
TAP	48	192	2
TAP	49	0	3
TAP	49	192	3
BRK	50	0	3
BRK	50	0	4
TTP	51	0	4	B	0	L1
TTP	52	0	5	B	0	L1
TTP	53	0	6	B	0	L1
TTP	54	0	7	B	0	L1
TTP	55	0	0	B	0	L1
TTP	56	0	1	B	0	L1
TTP	57	0	2	B	0	L1
TTP	58	0	3	B	0	L1
TTP	59	0	4	B	0	L1
TTP	59	0	5	B	0	L1
TTP	60	0	6	B	0	L1
TTP	60	0	7	B	0	L1
TTP	61	0	0	B	0	L1
TTP	61	0	1	B	0	L1
TTP	62	0	2	B	0	L1
TTP	62	0	3	B	0	L1
TTP	63	0	4	B	0	L1
TTP	63	0	5	B	0	L1
TTP	63	0	6	E	0	L1
TTP	64	0	0	E	0	L1
TTP	64	0	0	B	0	L1
TTP	64	0	1	B	0	L1
THO	65	0	0	768	C	0	L1
TAP	71	0	7
TAP	71	96	7
TAP	71	192	7
TAP	72	0	0
TAP	72	0	7
TAP	73	0	6
TAP	73	96	6
TAP	73	192	6
TAP	74	0	6
TAP	74	0	7
TAP	75	0	5
TAP	75	96	5
TAP	75	192	5
TAP	76	0	4
TAP	76	96	4
TAP	76	192	4
TAP	77	0	3
TAP	77	96	3
TAP	77	192	3
TAP	78	0	3
TAP	78	0	4
HLD	79	0	2	192
HLD	79	0	3	192
XTP	80	0	2
XTP	80	0	3
XTP	80	192	2
XTP	80	192	3
HLD	81	0	4	192
HLD	81	0	5	192
XTP	82	0	4
XTP	82	0	5
XTP	82	192	4
XTP	82	192	5
TAP	83	0	3
TAP	83	96	3
TAP	83	192	3
TAP	84	0	4
TAP	84	96	4
TAP	84	192	4
TAP	85	0	3
TAP	85	96	3
TAP	85	192	4
TAP	85	288	4
XTP	86	0	2
XTP	86	0	5
TAP	87	0	4
TAP	87	96	4
TAP	87	192	4
XTP	88	0	3
XTP	88	0	5
TAP	89	0	3
TAP	89	96	3
TAP	89	192	3
XTP	90	0	2
XTP	90	0	4
TAP	91	0	4
TAP	91	96	4
TAP	91	192	4
TAP	92	0	3
TAP	92	96	3
TAP	92	192	3
TAP	93	0	3
TAP	93	0	4
TAP	93	96	3
TAP	93	96	4
TAP	93	192	3
TAP	93	192	4
XTP	94	0	2
XTP	94	0	5
TAP	95	0	1
TAP	95	96	1
TAP	95	192	1
XTP	96	0	0
XTP	96	0	2
TAP	97	0	6
TAP	97	96	6
TAP	97	192	6
XTP	98	0	5
XTP	98	0	7
TAP	99	0	0
TAP	99	96	0
TAP	99	192	7
TAP	99	288	7
TAP	100	0	0
TAP	100	96	0
TAP	100	192	7
TAP	100	288	7
TAP	101	0	0
TAP	101	0	7
TAP	101	96	0
TAP	101	96	7
TAP	101	192	0
TAP	101	192	7
BRK	102	0	1
BRK	102	0	6
STR	103	0	0
SI_	103	0	0	96	288	3
STR	105	0	7
SI_	105	0	7	96	288	4
TAP	107	0	0
TAP	107	96	0
TAP	107	192	0
TAP	108	0	0
TAP	108	96	0
TAP	108	192	0
TAP	109	0	1
TAP	109	96	1
TAP	109	192	1
TAP	110	0	1
TAP	110	96	1
HLD	110	192	1	192
TAP	111	192	2
TAP	112	0	2
TAP	112	96	2
TAP	112	192	2
TAP	113	0	3
TAP	113	96	3
TAP	113	192	3
XTP	114	0	3
XTP	114	0	4
TAP	115	0	5
TAP	115	96	5
TAP	115	192	5
TAP	115	288	5
TAP	116	0	6
TAP	116	96	6
TAP	116	192	6
TAP	116	288	6
TAP	117	0	7
TAP	117	96	7
TAP	117	192	7
TAP	117	288	7
TAP	118	0	0
TAP	118	96	0
TAP	118	192	0
TAP	118	288	0
TAP	119	0	1
TAP	119	96	1
TAP	119	192	1
TAP	119	288	1
TAP	120	0	2
TAP	120	96	2
TAP	120	192	2
TAP	120	288	2
TAP	121	0	3
TAP	121	96	3
TAP	121	192	4
TAP	121	288	4
THO	122	0	0	384	C	1	L1

T_REC_TAP	170
T_REC_BRK	4
T_REC_XTP	26
T_REC_HLD	7
T_REC_XHO	0
T_REC_STR	4
T_REC_BST	0
T_REC_XST	0
T_REC_TTP	22
T_REC_THO	3
T_REC_SLD	4
T_REC_ALL	240
T_NUM_TAP	222
T_NUM_BRK	4
T_NUM_HLD	10
T_NUM_SLD	4
T_NUM_ALL	240
T_JUDGE_TAP	226
T_JUDGE_HLD	38
T_JUDGE_SLD	4
T_JUDGE_ALL	268
TTM_EACHPAIRS	28
TTM_SCR_TAP	111000
TTM_SCR_BRK	10400
TTM_SCR_HLD	10000
TTM_SCR_SLD	6000
TTM_SCR_ALL	137400
TTM_SCR_S	132900
TTM_SCR_SS	137000
TTM_RAT_ACV	10029

