VERSION	0.00.00	1.03.00
FES_MODE	0
BPM_DEF	150.000	150.000	150.000	150.000
MET_DEF	4	4
RESOLUTION	384
CLK_DEF	384
COMPATIBLE_CODE	MA2

BPM	0	0	150.000
MET	0	0	4	4

TAP	1	0	3
TAP	1	0	4
TAP	1	72	3
TAP	1	72	4
HLD	1	144	2	144
HLD	1	144	5	144
TAP	2	0	3
TAP	2	0	4
TAP	2	48	2
TAP	2	96	3
TAP	2	96	4
TAP	2	144	5
TAP	2	192	3
TAP	2	192	4
TAP	2	264	3
TAP	2	288	4
TAP	2	336	2
TAP	3	0	3
TAP	3	0	4
TAP	3	48	5
TAP	3	96	3
TAP	3	96	4
TAP	3	144	2
TAP	3	192	3
TAP	3	192	4
TAP	3	264	4
TAP	3	288	3
TAP	3	336	5
TAP	4	0	3
TAP	4	0	4
TAP	4	48	2
TAP	4	96	1
TAP	4	96	3
TAP	4	144	2
TAP	4	192	3
TAP	4	192	4
TAP	4	240	5
TAP	4	288	4
TAP	4	288	6
TAP	4	336	5
TAP	5	0	3
TAP	5	0	4
TAP	5	48	2
TAP	5	96	3
TAP	5	96	4
TAP	5	144	5
TAP	5	192	3
TAP	5	216	4
TAP	5	264	2
TAP	5	264	5
STR	6	0	1
SI_	6	0	1	96	48	6
TAP	6	48	1
TAP	6	96	4
TAP	6	144	4
STR	6	192	5
SI_	6	192	5	96	48	2
TAP	6	240	5
TAP	6	288	0
HLD	6	336	0	96
TAP	7	48	7
TAP	7	96	6
TAP	7	144	5
TAP	7	192	3
TAP	7	192	4
TAP	7	288	1
TAP	7	288	6
TAP	8	0	2
TAP	8	32	4
TAP	8	64	2
TAP	8	96	5
TAP	8	128	3
TAP	8	160	5
TAP	8	192	2
TAP	8	224	3
TAP	8	256	2
TAP	8	288	5
TAP	8	320	4
TAP	8	352	5
TAP	9	0	3
TAP	9	32	3
TAP	9	64	3
TAP	9	96	4
TAP	9	128	4
TAP	9	160	4
TAP	9	192	2
TAP	9	224	2
TAP	9	256	2
TAP	9	288	5
TAP	9	320	5
TAP	9	352	5
HLD	10	0	0	96
HLD	10	96	1	96
HLD	10	192	2	96
HLD	10	288	3	96
HLD	11	0	4	96
HLD	11	96	5	96
STR	11	192	6
SCR	11	192	6	96	288	5
THO	11	288	0	768	C	1	M1
STR	12	288	7
SCL	12	288	7	96	288	0
XHO	14	0	0	192
XHO	14	0	7	192
BRK	14	288	1
BRK	14	288	6
XHO	15	0	3	72
XHO	15	0	5	72
HLD	15	96	3	72
HLD	15	96	5	72
HLD	15	192	4	48
HLD	15	192	6	48
HLD	15	264	3	48
HLD	15	264	5	48
TAP	15	336	2
TAP	15	336	4
HLD	16	0	2	72
HLD	16	0	4	72
HLD	16	96	2	72
HLD	16	96	4	72
HLD	16	192	1	48
HLD	16	192	3	48
HLD	16	264	2	48
HLD	16	264	4	48
TAP	16	336	3
TAP	16	336	5
HLD	17	0	3	72
HLD	17	0	5	72
HLD	17	96	3	72
HLD	17	96	5	72
HLD	17	192	4	48
HLD	17	192	6	48
HLD	17	264	3	48
HLD	17	264	5	48
TAP	17	336	2
TAP	17	336	4
HLD	18	0	2	72
HLD	18	0	4	72
HLD	18	96	2	72
HLD	18	96	4	72
TAP	18	192	3
TAP	18	216	4
TAP	18	240	3
BRK	18	288	2
BRK	18	288	7
XHO	19	0	4	72
XHO	19	0	6	72
HLD	19	96	4	72
HLD	19	96	6	72
HLD	19	192	5	48
HLD	19	192	6	48
HLD	19	264	3	48
HLD	19	264	4	48
TAP	19	336	1
TAP	19	336	3
HLD	20	0	1	72
HLD	20	0	3	72
HLD	20	96	1	72
HLD	20	96	3	72
HLD	20	192	1	48
HLD	20	192	2	48
HLD	20	264	3	48
HLD	20	264	4	48
TAP	20	336	4
TAP	20	336	6
HLD	21	0	4	72
HLD	21	0	6	72
HLD	21	96	4	72
HLD	21	96	6	72
HLD	21	192	5	48
HLD	21	192	6	48
HLD	21	264	3	48
HLD	21	264	4	48
TAP	21	336	1
TAP	21	336	3
XTP	22	0	0
XTP	22	0	1
TAP	22	72	2
TAP	22	72	3
TAP	22	144	6
TAP	22	144	7
TAP	22	216	4
TAP	22	216	5
TTP	22	288	0	C	1	M1
TTP	22	288	2	E	0	M1
TTP	22	288	2	B	0	M1
TTP	22	288	5	B	0	M1
TTP	22	288	6	E	0	M1
TAP	23	48	6
TAP	23	96	6
TAP	23	144	0
TAP	23	192	1
TAP	23	240	2
TAP	23	288	3
TAP	23	336	4
TAP	23	336	5
TAP	24	48	1
TAP	24	96	1
TAP	24	144	7
TAP	24	192	6
TAP	24	240	5
TAP	24	288	4
TAP	24	336	2
TAP	24	336	3
TAP	25	48	4
TAP	25	96	5
TAP	25	144	6
TAP	25	192	5
TAP	25	240	4
TAP	25	288	3
TAP	25	336	2
TAP	25	336	3
TAP	26	48	2
TAP	26	96	3
TAP	26	144	4
TAP	26	192	5
HLD	26	192	6	96
TTP	27	0	0	C	0	M1
TTP	27	72	6	E	0	M1
TTP	27	72	7	E	0	M1
TAP	27	144	5
TAP	27	192	4
TAP	27	240	3
HLD	27	288	2	96
TTP	28	0	0	C	0	M1
TTP	28	72	1	E	0	M1
TTP	28	72	2	E	0	M1
TAP	28	144	2
TAP	28	192	3
TAP	28	240	4
HLD	28	288	5	96
TTP	29	0	0	C	0	M1
TTP	29	72	6	E	0	M1
TTP	29	72	7	E	0	M1
TAP	29	144	5
TAP	29	192	4
TAP	29	240	3
TAP	29	288	2
TAP	29	336	1
STR	30	0	0
SI_	30	0	0	96	48	4
TAP	30	96	0
STR	30	96	7
SI_	30	96	7	96	48	3
TAP	30	192	0
TAP	30	192	7
BRK	30	288	1
BRK	30	288	6
TAP	31	0	1
STR	31	0	3
SI_	31	0	3	96	48	7
TAP	31	48	4
STR	31	96	2
SI_	31	96	2	96	48	0
TAP	31	96	3
TAP	31	144	1
TAP	31	192	2
TAP	31	192	7
TAP	31	240	4
TAP	31	288	1
TAP	31	288	5
TAP	31	336	2
TAP	32	0	3
TAP	32	0	7
TAP	32	48	6
STR	32	96	2
SXL	32	96	2	96	96	3
SLL	32	96	2	96	96	3
TAP	32	96	5
TAP	32	144	1
TAP	32	192	2
BST	33	0	4
SI_	33	0	4	96	48	0
BRK	33	0	6
TAP	33	48	3
TAP	33	96	4
STR	33	96	5
SI_	33	96	5	96	48	7
TAP	33	144	6
TAP	33	192	0
TAP	33	192	5
TAP	33	240	3
TAP	33	288	2
TAP	33	288	6
TAP	33	336	5
TAP	34	0	1
TAP	34	0	4
TAP	34	48	2
TAP	34	96	3
TAP	34	96	6
TAP	34	144	7
BRK	34	192	0
BRK	34	192	1
BRK	34	264	3
BRK	34	264	7
TAP	34	336	2
TAP	34	360	3
TAP	35	0	2
TAP	35	48	1
STR	35	96	0
SI_	35	96	0	96	48	4
TAP	35	96	7
STR	35	144	4
SCL	35	144	4	96	72	1
HLD	35	192	6	72
TAP	35	336	5
TAP	35	360	4
TAP	36	0	5
TAP	36	48	6
TAP	36	96	0
STR	36	96	7
SI_	36	96	7	96	48	3
STR	36	144	3
SCR	36	144	3	96	72	6
HLD	36	192	1	72
TAP	36	336	0
XTP	37	0	0
XTP	37	0	7
TAP	37	96	1
TAP	37	96	2
TAP	37	192	5
TAP	37	192	6
TTP	37	288	0	C	1	M1
TTP	37	288	2	E	0	M1
TTP	37	288	6	E	0	M1
TAP	38	0	0
TAP	38	0	7
TAP	38	48	1
TAP	38	96	0
TAP	38	96	7
TAP	38	144	6
TAP	38	192	3
TAP	38	192	4
TAP	38	240	5
TAP	38	264	4
TAP	38	312	2
TAP	38	336	3
BRK	39	0	1
BRK	39	0	6
XTP	39	96	0
XTP	39	96	7
TAP	39	108	1
TAP	39	120	2
TAP	39	132	3
XTP	39	192	0
TAP	39	204	1
TAP	39	216	2
TAP	39	228	3
XTP	39	288	0
TAP	39	300	1
TAP	39	312	2
TAP	39	324	3
TAP	40	0	3
TAP	40	0	4
TAP	40	48	5
TAP	40	96	6
TAP	40	96	7
TAP	40	144	0
HLD	40	192	1	48
HLD	40	192	3	48
HLD	40	264	3	48
HLD	40	264	5	48
TAP	40	336	2
TAP	40	336	3
BRK	41	0	1
BRK	41	0	4
XTP	41	96	0
XTP	41	96	7
TAP	41	108	6
TAP	41	120	5
TAP	41	132	4
XTP	41	192	7
TAP	41	204	6
TAP	41	216	5
TAP	41	228	4
XTP	41	288	7
TAP	41	300	6
TAP	41	312	5
TAP	41	324	4
TAP	42	0	3
TAP	42	0	4
TAP	42	48	2
TAP	42	96	1
TAP	42	96	3
TAP	42	144	0
TTP	42	192	6	E	0	M1
TTP	42	192	6	B	0	M1
TTP	42	192	7	B	0	M1
TTP	42	264	2	E	0	M1
TTP	42	264	2	B	0	M1
TTP	42	264	3	B	0	M1
TAP	42	336	5
STR	43	0	6
SCL	43	0	6	96	48	3
TAP	43	48	7
TAP	43	96	0
TAP	43	144	1
STR	43	192	2
SCL	43	192	2	96	48	7
TAP	43	240	3
TAP	43	288	4
TAP	43	336	5
STR	44	0	6
SI_	44	0	6	96	48	1
TAP	44	48	6
STR	44	96	2
SI_	44	96	2	96	48	5
TAP	44	144	2
STR	44	192	0
SI_	44	192	0	96	48	4
TAP	44	240	0
TAP	44	288	3
TAP	44	336	2
HLD	45	0	1	48
TAP	45	48	0
TAP	45	72	1
TAP	45	144	2
TAP	45	144	7
HLD	45	192	6	48
TAP	45	240	7
TAP	45	264	6
TAP	45	336	0
TAP	45	336	5
TAP	46	0	3
TAP	46	0	4
HLD	46	48	3	96
TAP	46	48	4
STR	46	144	1
SCL	46	144	1	96	48	6
STR	46	240	3
SCL	46	240	3	96	384	4
TTP	48	96	7	E	0	M1
TTP	48	144	7	B	0	M1
TTP	48	192	0	B	0	M1
TTP	48	240	1	E	0	M1
TTP	48	288	1	B	0	M1
TTP	48	336	2	B	0	M1
TTP	49	48	5	B	0	M1
TTP	49	48	6	B	0	M1
TTP	49	144	0	B	0	M1
TTP	49	144	7	B	0	M1
TTP	49	240	1	B	0	M1
TTP	49	240	2	B	0	M1
THO	49	336	0	240	C	0	M1
TTP	49	336	3	B	0	M1
TTP	49	336	4	B	0	M1
TAP	51	0	3
HLD	51	0	4	528
TAP	51	144	3
TAP	51	240	3
TAP	51	288	3
TAP	52	48	3
TAP	52	144	3
TAP	52	168	4
TAP	52	192	3
TAP	52	240	3
HLD	52	288	3	384
TAP	53	0	4
TAP	53	144	4
TAP	53	240	4
TAP	53	288	4
TTP	54	0	7	E	0	M1
TTP	54	32	2	E	0	M1
TTP	54	64	5	E	0	M1
TTP	54	96	1	E	0	M1
TTP	54	128	6	E	0	M1
TTP	54	160	3	E	0	M1
TTP	54	192	5	B	0	M1
TTP	54	224	1	B	0	M1
TTP	54	256	7	B	0	M1
TTP	54	288	0	C	0	M1
TTP	54	288	3	B	0	M1
HLD	55	0	5	192
TAP	55	96	4
HLD	55	192	4	144
TAP	55	288	5
HLD	55	336	5	96
HLD	56	48	4	240
TAP	56	144	5
HLD	56	192	5	96
HLD	57	0	2	192
TAP	57	96	3
HLD	57	192	3	144
TAP	57	288	2
HLD	57	336	2	96
HLD	58	48	3	240
TAP	58	144	2
HLD	58	192	2	96
HLD	59	0	7	96
HLD	59	96	6	96
HLD	59	192	5	96
HLD	59	288	4	96
HLD	60	0	3	96
HLD	60	96	2	96
STR	60	192	1
SCL	60	192	1	96	288	2
THO	60	288	0	768	C	1	M1
STR	61	288	0
SCR	61	288	0	96	288	7
XHO	63	0	0	192
XHO	63	0	7	192
BRK	63	288	1
BRK	63	288	6
TAP	64	0	0
STR	64	0	3
SI_	64	0	3	96	48	7
TAP	64	48	4
STR	64	96	2
SI_	64	96	2	96	48	0
TAP	64	96	3
TAP	64	144	1
TAP	64	192	2
TAP	64	192	7
TAP	64	240	4
TAP	64	288	1
TAP	64	288	5
TAP	64	336	2
TAP	65	0	3
TAP	65	0	7
TAP	65	48	6
STR	65	96	2
SXL	65	96	2	96	96	3
SLL	65	96	2	96	96	3
TAP	65	96	5
TAP	65	144	1
TAP	65	192	2
BST	66	0	4
SI_	66	0	4	96	48	0
BRK	66	0	7
TAP	66	48	3
TAP	66	96	4
STR	66	96	5
SI_	66	96	5	96	48	7
TAP	66	144	6
TAP	66	192	0
TAP	66	192	5
TAP	66	240	3
TAP	66	288	2
TAP	66	288	6
TAP	66	336	5
TAP	67	0	1
TAP	67	0	4
TAP	67	48	2
TAP	67	96	3
TAP	67	96	6
TAP	67	144	7
BRK	67	192	0
BRK	67	192	1
BRK	67	264	3
BRK	67	264	7
TAP	67	336	2
TAP	67	360	3
TAP	68	0	2
TAP	68	48	1
STR	68	96	0
SI_	68	96	0	96	48	5
TAP	68	96	7
STR	68	144	5
SCL	68	144	5	96	72	0
TAP	68	192	0
HLD	68	192	6	72
TAP	68	336	5
TAP	68	360	4
TAP	69	0	5
TAP	69	48	6
TAP	69	96	0
STR	69	96	7
SI_	69	96	7	96	48	2
STR	69	144	2
SCR	69	144	2	96	72	7
HLD	69	192	1	72
TAP	69	192	7
TAP	69	336	0
XTP	70	0	0
XTP	70	0	7
TAP	70	96	1
TAP	70	96	2
TAP	70	192	5
TAP	70	192	6
TTP	70	288	0	C	1	M1
TTP	70	288	2	E	0	M1
TTP	70	288	6	E	0	M1
TAP	71	0	0
TAP	71	0	7
TAP	71	48	1
TAP	71	96	0
TAP	71	96	7
TAP	71	144	6
TAP	71	192	3
TAP	71	192	4
TAP	71	240	5
TAP	71	264	4
TAP	71	312	2
TAP	71	336	3
BRK	72	0	1
BRK	72	0	6
XTP	72	96	0
XTP	72	96	7
TAP	72	108	6
TAP	72	120	5
HLD	72	132	4	60
XTP	72	192	7
TAP	72	204	6
TAP	72	216	5
HLD	72	228	4	60
XTP	72	288	7
TAP	72	300	6
TAP	72	312	5
HLD	72	324	4	60
TAP	73	0	3
TAP	73	48	2
TAP	73	96	0
TAP	73	96	1
TAP	73	144	7
HLD	73	192	4	48
HLD	73	192	6	48
HLD	73	264	2	48
HLD	73	264	4	48
TAP	73	336	4
TAP	73	336	5
BRK	74	0	3
BRK	74	0	6
XTP	74	96	0
XTP	74	96	7
TAP	74	108	1
TAP	74	120	2
HLD	74	132	3	60
XTP	74	192	0
TAP	74	204	1
TAP	74	216	2
HLD	74	228	3	60
XTP	74	288	0
TAP	74	300	1
TAP	74	312	2
HLD	74	324	3	60
TAP	75	0	4
TAP	75	48	5
TAP	75	96	4
TAP	75	96	6
TAP	75	144	7
TTP	75	192	0	E	0	M1
TTP	75	192	0	B	0	M1
TTP	75	192	1	B	0	M1
TTP	75	192	2	E	0	M1
TTP	75	264	4	E	0	M1
TTP	75	264	4	B	0	M1
TTP	75	264	5	B	0	M1
TTP	75	264	6	E	0	M1
TAP	75	336	2
STR	76	0	1
SCR	76	0	1	96	48	4
TAP	76	48	0
TAP	76	96	7
TAP	76	144	6
STR	76	192	5
SCR	76	192	5	96	48	0
TAP	76	240	4
TAP	76	288	3
TAP	76	336	2
STR	77	0	1
SI_	77	0	1	96	48	6
TAP	77	48	1
STR	77	96	5
SI_	77	96	5	96	48	2
TAP	77	144	5
STR	77	192	7
SI_	77	192	7	96	48	3
TAP	77	240	7
TAP	77	288	4
TAP	77	336	5
HLD	78	0	6	48
TAP	78	48	7
TAP	78	72	6
TAP	78	144	0
TAP	78	144	5
HLD	78	192	1	48
TAP	78	240	0
TAP	78	264	1
TAP	78	336	2
TAP	78	336	7
TAP	79	0	3
TAP	79	0	4
TAP	79	48	3
HLD	79	48	4	96
STR	79	144	6
SCR	79	144	6	96	48	1
STR	79	240	4
SCR	79	240	4	96	336	3
TTP	80	96	0	E	0	M1
TTP	80	168	4	E	0	M1
TTP	80	240	0	C	1	M1
XHO	81	0	1	72
XHO	81	0	3	72
HLD	81	96	1	72
HLD	81	96	3	72
HLD	81	192	0	48
HLD	81	192	2	48
HLD	81	264	3	48
HLD	81	264	5	48
TAP	81	336	4
TAP	81	336	6
HLD	82	0	4	72
HLD	82	0	6	72
HLD	82	96	4	72
HLD	82	96	6	72
HLD	82	192	5	48
HLD	82	192	7	48
HLD	82	264	2	48
HLD	82	264	4	48
TAP	82	336	1
TAP	82	336	3
HLD	83	0	1	72
HLD	83	0	3	72
HLD	83	96	1	72
HLD	83	96	3	72
HLD	83	192	0	48
HLD	83	192	2	48
HLD	83	264	3	48
HLD	83	264	5	48
TAP	83	336	4
TAP	83	336	6
HLD	84	0	4	72
HLD	84	0	6	72
HLD	84	96	4	72
HLD	84	96	6	72
STR	84	192	0
SF_	84	192	0	96	48	4
BRK	84	288	0
XHO	85	0	4	72
XHO	85	0	7	72
HLD	85	96	4	72
HLD	85	96	7	72
HLD	85	192	1	48
HLD	85	192	2	48
HLD	85	264	4	48
HLD	85	264	6	48
TAP	85	336	0
TAP	85	336	3
HLD	86	0	0	72
HLD	86	0	3	72
HLD	86	96	0	72
HLD	86	96	3	72
HLD	86	192	5	48
HLD	86	192	6	48
HLD	86	264	1	48
HLD	86	264	3	48
TAP	86	336	4
TAP	86	336	7
HLD	87	0	4	72
HLD	87	0	7	72
HLD	87	96	4	72
HLD	87	96	7	72
HLD	87	192	1	48
HLD	87	192	2	48
HLD	87	264	4	48
HLD	87	264	6	48
TAP	87	336	0
TAP	87	336	3
XTP	88	0	6
XTP	88	0	7
TAP	88	72	4
TAP	88	72	5
TAP	88	144	0
TAP	88	144	1
TAP	88	216	2
TAP	88	216	3
TTP	88	288	0	C	1	M1
TTP	88	288	2	B	0	M1
TTP	88	288	2	E	0	M1
TTP	88	288	5	B	0	M1
TTP	88	288	6	E	0	M1

T_REC_TAP	404
T_REC_BRK	27
T_REC_XTP	24
T_REC_HLD	150
T_REC_XHO	12
T_REC_STR	39
T_REC_BST	2
T_REC_XST	0
T_REC_TTP	67
T_REC_THO	3
T_REC_SLD	43
T_REC_ALL	771
T_NUM_TAP	534
T_NUM_BRK	29
T_NUM_HLD	165
T_NUM_SLD	43
T_NUM_ALL	771
T_JUDGE_TAP	563
T_JUDGE_HLD	338
T_JUDGE_SLD	43
T_JUDGE_ALL	944
TTM_EACHPAIRS	177
TTM_SCR_TAP	267000
TTM_SCR_BRK	75400
TTM_SCR_HLD	165000
TTM_SCR_SLD	64500
TTM_SCR_ALL	571900
TTM_SCR_S	551950
TTM_SCR_SS	569000
TTM_RAT_ACV	10050

