VERSION	0.00.00	1.03.00
FES_MODE	0
BPM_DEF	150.000	150.000	150.000	150.000
MET_DEF	4	4
RESOLUTION	384
CLK_DEF	384
COMPATIBLE_CODE	MA2

BPM	0	0	150.000
MET	0	0	4	4

HLD	2	0	2	288
TAP	2	0	3
TAP	2	192	3
TAP	2	288	3
TAP	3	0	4
HLD	3	0	5	288
TAP	3	192	4
TAP	3	288	4
HLD	4	0	1	288
TAP	4	0	3
TAP	4	192	3
TAP	4	288	3
HLD	5	0	6	96
TAP	5	96	4
XTP	5	192	1
XTP	5	192	5
HLD	6	0	0	192
TAP	6	192	2
TAP	6	288	1
TAP	6	288	3
HLD	7	0	7	192
TAP	7	192	5
TAP	7	288	4
TAP	7	288	6
HLD	8	0	2	96
TAP	8	96	3
HLD	8	192	5	96
TAP	8	288	4
HLD	9	0	1	96
TAP	9	96	3
HLD	9	192	6	96
TAP	9	288	4
HLD	10	0	1	96
HLD	10	96	3	96
HLD	10	192	4	96
HLD	10	288	6	96
HLD	11	0	0	96
HLD	11	96	2	96
HLD	11	192	4	96
STR	11	288	6
SCL	11	288	6	96	240	1
THO	13	0	0	336	C	1	M1
TTP	13	0	1	B	0	M1
TTP	13	0	2	B	0	M1
TTP	13	0	5	B	0	M1
TTP	13	0	6	B	0	M1
HLD	15	0	1	96
TAP	15	96	0
XTP	15	192	4
XTP	15	192	5
XTP	15	264	4
XTP	15	264	5
XTP	15	336	4
XTP	15	336	5
XTP	16	0	4
XHO	16	0	5	96
TAP	16	96	7
XTP	16	192	2
XTP	16	192	3
XTP	16	264	2
XTP	16	264	3
XTP	16	336	2
XTP	16	336	3
XHO	17	0	2	96
XTP	17	0	3
TAP	17	96	0
XTP	17	192	4
XTP	17	192	5
XTP	17	264	4
XTP	17	264	5
XTP	17	336	4
XTP	17	336	5
XTP	18	0	4
XHO	18	0	5	96
TAP	18	96	7
TAP	18	192	0
TAP	18	192	7
BRK	18	288	1
BRK	18	288	6
HLD	19	0	6	96
TAP	19	96	7
XTP	19	192	2
XTP	19	192	3
XTP	19	264	2
XTP	19	264	3
XTP	19	336	2
XTP	19	336	3
XHO	20	0	1	96
XTP	20	0	4
TAP	20	96	0
XTP	20	192	4
XTP	20	192	5
XTP	20	264	4
XTP	20	264	5
XTP	20	336	4
XTP	20	336	5
XTP	21	0	3
XHO	21	0	6	96
TAP	21	96	7
XTP	21	192	0
XTP	21	192	7
XTP	21	264	0
XTP	21	264	7
XTP	21	336	0
XTP	21	336	7
XHO	22	0	1	192
XHO	22	0	6	288
BRK	22	288	0
HLD	23	0	2	384
TTP	23	192	2	B	0	M1
TTP	23	288	0	C	0	M1
HLD	24	0	5	384
TTP	24	192	5	B	0	M1
TTP	24	288	0	C	0	M1
HLD	25	0	1	384
TTP	25	192	1	B	0	M1
TTP	25	288	0	C	0	M1
TTP	26	0	7	E	0	M1
TTP	26	0	7	B	0	M1
TTP	26	96	2	B	0	M1
TTP	26	96	3	E	0	M1
TTP	26	192	0	C	0	M1
TTP	26	192	0	B	0	M1
TTP	26	192	4	B	0	M1
HLD	27	0	6	384
TTP	27	192	6	B	0	M1
TTP	27	288	0	C	0	M1
HLD	28	0	1	384
TTP	28	192	1	B	0	M1
TTP	28	288	0	C	0	M1
HLD	29	0	5	288
TTP	29	192	5	B	0	M1
TTP	29	288	0	C	0	M1
XTP	30	0	0
XTP	30	0	7
XTP	30	96	3
XTP	30	96	4
BRK	30	192	2
BRK	30	192	6
TAP	31	0	0
TAP	31	0	1
TAP	31	48	1
TAP	31	96	1
TAP	31	96	6
TAP	31	144	1
TAP	31	192	1
TAP	31	192	7
XTP	31	288	0
XTP	31	288	5
TAP	32	0	4
TAP	32	0	5
TAP	32	48	5
TAP	32	96	2
TAP	32	96	5
TAP	32	144	5
TAP	32	192	3
TAP	32	192	5
XTP	32	288	1
XTP	32	288	4
TAP	33	0	6
TAP	33	0	7
TAP	33	48	6
TAP	33	96	1
TAP	33	96	6
TAP	33	144	6
TAP	33	192	0
TAP	33	192	6
XTP	33	288	2
XTP	33	288	7
TAP	34	0	4
TAP	34	0	5
TAP	34	96	2
TAP	34	96	3
HLD	34	192	0	48
HLD	34	192	6	48
XTP	34	264	0
XTP	34	264	6
STR	35	0	7
SCL	35	0	7	96	48	4
STR	35	96	2
SUR	35	96	2	96	96	0
XTP	35	288	7
STR	36	0	7
SCL	36	0	7	96	48	4
STR	36	96	2
SUR	36	96	2	96	96	0
XTP	36	288	7
HLD	37	0	0	48
HLD	37	0	6	48
HLD	37	96	3	48
HLD	37	96	5	48
HLD	37	192	2	48
HLD	37	192	4	48
HLD	37	288	1	48
HLD	37	288	7	48
TAP	38	0	0
TAP	38	48	1
TAP	38	96	2
TAP	38	144	3
STR	38	192	4
SI_	38	192	4	96	48	1
SI_	38	192	4	96	48	7
BRK	39	0	2
BRK	39	0	6
TAP	39	96	1
TAP	39	96	6
TAP	39	144	6
TAP	39	192	0
TAP	39	192	6
XTP	39	288	2
XTP	39	288	7
TAP	40	0	2
TAP	40	0	3
TAP	40	48	2
TAP	40	96	2
TAP	40	96	5
TAP	40	144	2
TAP	40	192	2
TAP	40	192	4
XTP	40	288	3
XTP	40	288	6
TAP	41	0	0
TAP	41	0	1
TAP	41	48	1
TAP	41	96	1
TAP	41	96	6
TAP	41	144	1
TAP	41	192	1
TAP	41	192	7
XTP	41	288	0
XTP	41	288	5
TAP	42	0	2
TAP	42	0	3
TAP	42	96	4
TAP	42	96	5
HLD	42	192	1	48
HLD	42	192	7	48
XTP	42	264	1
XTP	42	264	7
TAP	42	336	6
STR	43	0	6
SI_	43	0	6	96	48	3
STR	43	96	0
SI_	43	96	0	96	48	4
XTP	43	192	7
BRK	43	288	2
BRK	43	288	6
STR	44	0	1
SI_	44	0	1	96	48	4
STR	44	96	7
SI_	44	96	7	96	48	3
XTP	44	192	0
BRK	44	288	1
BRK	44	288	5
STR	45	0	6
SI_	45	0	6	96	48	4
STR	45	0	7
SI_	45	0	7	96	48	3
STR	45	192	0
SI_	45	192	0	96	48	4
STR	45	192	1
SI_	45	192	1	96	48	3
STR	46	0	6
SI_	46	0	6	96	48	3
STR	46	96	0
SI_	46	96	0	96	48	4
STR	46	192	7
SI_	46	192	7	96	48	3
STR	46	288	1
SCL	46	288	1	96	384	2
TAP	47	0	7
HLD	48	192	2	192
HLD	49	0	3	192
TAP	49	192	4
STR	49	288	4
SCR	49	288	4	96	240	2
HLD	51	0	2	384
TAP	51	192	3
TAP	51	288	3
HLD	52	0	5	384
TAP	52	192	4
TAP	52	288	4
HLD	53	0	1	384
TAP	53	192	3
STR	53	288	3
SCL	53	288	3	96	240	4
XTP	54	288	0
HLD	55	0	2	384
TTP	55	192	2	B	0	M1
TTP	55	192	3	E	0	M1
TTP	55	288	0	C	0	M1
HLD	56	0	5	384
TTP	56	192	5	E	0	M1
TTP	56	192	5	B	0	M1
TTP	56	288	0	C	0	M1
HLD	57	0	1	384
TTP	57	192	1	B	0	M1
TTP	57	192	2	E	0	M1
TTP	57	288	0	C	0	M1
TTP	58	0	7	B	0	M1
TTP	58	0	7	E	0	M1
TTP	58	96	2	B	0	M1
TTP	58	96	3	E	0	M1
TTP	58	192	0	C	0	M1
TTP	58	192	0	B	0	M1
TTP	58	192	4	B	0	M1
HLD	59	0	6	96
HLD	59	96	4	96
HLD	59	192	3	96
HLD	59	288	1	96
HLD	60	0	7	96
HLD	60	96	5	96
HLD	60	192	3	96
STR	60	288	1
SCR	60	288	1	96	240	6
XTP	61	288	7
THO	62	0	0	336	C	1	M1
TTP	62	0	1	B	0	M1
TTP	62	0	2	B	0	M1
TTP	62	0	5	B	0	M1
TTP	62	0	6	B	0	M1
TAP	64	0	0
TAP	64	0	1
TAP	64	48	2
TAP	64	48	7
TAP	64	96	0
TAP	64	96	1
TAP	64	144	2
TAP	64	144	7
TAP	64	192	0
TAP	64	192	1
XTP	64	288	0
XTP	64	288	5
TAP	65	0	4
TAP	65	0	5
TAP	65	48	3
TAP	65	48	6
TAP	65	96	4
TAP	65	96	5
TAP	65	144	3
TAP	65	144	6
TAP	65	192	4
TAP	65	192	5
XTP	65	288	1
XTP	65	288	4
TAP	66	0	6
TAP	66	0	7
TAP	66	48	0
TAP	66	48	5
TAP	66	96	6
TAP	66	96	7
TAP	66	144	0
TAP	66	144	5
TAP	66	192	6
TAP	66	192	7
XTP	66	288	2
XTP	66	288	7
TAP	67	0	4
TAP	67	0	5
TAP	67	96	2
TAP	67	96	3
HLD	67	192	0	48
HLD	67	192	6	48
XTP	67	264	0
XTP	67	264	6
XST	68	0	7
SCL	68	0	7	96	48	4
STR	68	96	2
SUR	68	96	2	96	96	3
XTP	68	288	7
XST	69	0	7
SCL	69	0	7	96	48	4
STR	69	96	2
SUR	69	96	2	96	96	3
XTP	69	288	7
HLD	70	0	2	48
HLD	70	0	3	48
HLD	70	96	4	48
HLD	70	96	6	48
HLD	70	192	6	48
HLD	70	192	7	48
HLD	70	288	1	48
HLD	70	288	7	48
TAP	71	0	0
TAP	71	48	1
TAP	71	96	2
TAP	71	144	3
STR	71	192	4
SF_	71	192	4	96	48	0
BRK	72	0	2
BRK	72	0	6
TAP	72	96	6
TAP	72	96	7
TAP	72	144	0
TAP	72	144	5
TAP	72	192	6
TAP	72	192	7
XTP	72	288	2
XTP	72	288	7
TAP	73	0	2
TAP	73	0	3
TAP	73	48	1
TAP	73	48	4
TAP	73	96	2
TAP	73	96	3
TAP	73	144	1
TAP	73	144	4
TAP	73	192	2
TAP	73	192	3
XTP	73	288	3
XTP	73	288	6
TAP	74	0	0
TAP	74	0	1
TAP	74	48	2
TAP	74	48	7
TAP	74	96	0
TAP	74	96	1
TAP	74	144	2
TAP	74	144	7
TAP	74	192	0
TAP	74	192	1
XTP	74	288	0
XTP	74	288	5
TAP	75	0	2
TAP	75	0	3
TAP	75	96	4
TAP	75	96	5
HLD	75	192	1	48
HLD	75	192	7	48
XTP	75	264	1
XTP	75	264	7
TAP	75	336	6
STR	76	0	6
SI_	76	0	6	96	48	3
STR	76	96	0
SI_	76	96	0	96	48	4
XTP	76	192	7
XTP	76	240	7
BRK	76	288	2
BRK	76	288	6
STR	77	0	1
SI_	77	0	1	96	48	4
STR	77	96	7
SI_	77	96	7	96	48	3
XTP	77	192	0
XTP	77	240	0
BRK	77	288	1
BRK	77	288	5
STR	78	0	4
SI_	78	0	4	96	48	0
STR	78	0	5
SI_	78	0	5	96	48	7
STR	78	192	2
SI_	78	192	2	96	48	0
STR	78	192	3
SI_	78	192	3	96	48	7
STR	79	0	6
SI_	79	0	6	96	48	3
STR	79	96	0
SI_	79	96	0	96	48	4
STR	79	192	7
SI_	79	192	7	96	48	3
STR	79	288	1
SCL	79	288	1	96	192	4
HLD	80	0	7	192
BRK	80	288	1
BRK	80	288	5
HLD	81	0	6	96
TAP	81	96	7
XTP	81	192	2
XTP	81	192	3
XTP	81	264	2
XTP	81	264	3
XTP	81	336	2
XTP	81	336	3
XHO	82	0	2	96
XTP	82	0	3
TAP	82	96	0
XTP	82	192	4
XTP	82	192	5
XTP	82	264	4
XTP	82	264	5
XTP	82	336	4
XTP	82	336	5
XTP	83	0	4
XHO	83	0	5	96
TAP	83	96	7
XTP	83	192	2
XTP	83	192	3
XTP	83	264	2
XTP	83	264	3
XTP	83	336	2
XTP	83	336	3
XHO	84	0	2	96
XTP	84	0	3
TAP	84	96	0
TAP	84	192	0
TAP	84	192	7
BRK	84	288	1
BRK	84	288	6
HLD	85	0	1	96
TAP	85	96	0
XTP	85	192	4
XTP	85	192	5
XTP	85	264	4
XTP	85	264	5
XTP	85	336	4
XTP	85	336	5
XTP	86	0	3
XHO	86	0	6	96
TAP	86	96	7
XTP	86	192	2
XTP	86	192	3
XTP	86	264	2
XTP	86	264	3
XTP	86	336	2
XTP	86	336	3
XHO	87	0	1	96
XTP	87	0	4
TAP	87	96	0
XTP	87	192	0
XTP	87	192	7
XTP	87	264	0
XTP	87	264	7
XTP	87	336	0
XTP	87	336	7
THO	88	0	0	288	C	0	M1
TTP	88	0	2	E	0	M1
TTP	88	0	6	E	0	M1

T_REC_TAP	172
T_REC_BRK	21
T_REC_XTP	132
T_REC_HLD	67
T_REC_XHO	12
T_REC_STR	36
T_REC_BST	0
T_REC_XST	2
T_REC_TTP	45
T_REC_THO	3
T_REC_SLD	39
T_REC_ALL	529
T_NUM_TAP	387
T_NUM_BRK	21
T_NUM_HLD	82
T_NUM_SLD	39
T_NUM_ALL	529
T_JUDGE_TAP	408
T_JUDGE_HLD	252
T_JUDGE_SLD	39
T_JUDGE_ALL	699
TTM_EACHPAIRS	152
TTM_SCR_TAP	193500
TTM_SCR_BRK	54600
TTM_SCR_HLD	82000
TTM_SCR_SLD	58500
TTM_SCR_ALL	388600
TTM_SCR_S	374950
TTM_SCR_SS	386500
TTM_RAT_ACV	10054

