VERSION	0.00.00	1.03.00
FES_MODE	0
BPM_DEF	150.000	150.000	150.000	150.000
MET_DEF	4	4
RESOLUTION	384
CLK_DEF	384
COMPATIBLE_CODE	MA2

BPM	0	0	150.000
MET	0	0	4	4

HLD	2	0	2	192
TAP	2	192	3
HLD	3	0	4	192
TAP	3	192	3
HLD	4	0	5	192
TAP	4	192	4
HLD	5	0	3	192
TAP	5	192	4
TAP	6	0	2
TAP	6	96	2
TAP	6	192	1
TAP	7	0	5
TAP	7	96	5
TAP	7	192	6
HLD	8	0	4	96
HLD	8	0	5	96
TAP	8	192	4
TAP	8	192	5
HLD	9	0	2	96
HLD	9	0	3	96
TAP	9	192	2
TAP	9	192	3
TAP	10	0	1
TAP	10	96	2
TAP	10	192	2
TAP	10	192	3
TAP	11	0	6
TAP	11	96	5
TAP	11	192	4
TAP	11	192	5
TAP	12	0	3
TAP	12	96	3
TAP	12	192	2
TAP	12	192	5
THO	13	0	0	384	C	0	L1
BRK	15	0	1
BRK	15	0	6
TAP	15	96	2
TAP	15	192	2
TAP	15	192	3
TAP	16	0	1
TAP	16	0	6
TAP	16	96	5
TAP	16	192	4
TAP	16	192	5
TAP	17	0	2
TAP	17	96	3
TAP	17	192	5
TAP	17	288	4
TAP	18	0	3
TAP	18	96	2
XTP	18	192	0
XTP	18	192	1
TAP	19	0	2
TAP	19	0	5
TAP	19	96	6
TAP	19	192	6
TAP	19	192	7
TAP	20	0	2
TAP	20	0	5
TAP	20	96	1
TAP	20	192	0
TAP	20	192	1
TAP	21	0	2
TAP	21	96	3
TAP	21	192	4
STR	21	288	5
SCL	21	288	5	96	192	2
BRK	22	288	0
HLD	23	0	1	192
HLD	23	192	2	192
TAP	24	0	3
TAP	24	192	3
TAP	24	192	4
HLD	25	0	6	192
HLD	25	192	5	192
TAP	26	0	4
XTP	26	192	3
XTP	26	192	4
XHO	27	0	1	96
XHO	27	0	3	96
TAP	27	192	1
TAP	27	192	3
XHO	28	0	4	96
XHO	28	0	6	96
TAP	28	192	4
TAP	28	192	6
HLD	29	0	3	96
HLD	29	0	4	96
HLD	29	192	2	96
HLD	29	192	5	96
XTP	30	0	1
XTP	30	96	0
XTP	30	192	7
XTP	30	288	6
HLD	31	0	5	96
TAP	31	96	4
TAP	31	192	3
TAP	31	192	6
HLD	32	0	2	96
TAP	32	96	3
TAP	32	192	1
TAP	32	192	4
HLD	33	0	6	96
TAP	33	96	7
TAP	33	192	0
TAP	33	192	5
TAP	34	0	3
TAP	34	0	4
TAP	34	96	2
TAP	34	96	5
BRK	34	192	1
BRK	34	192	6
TAP	35	0	2
TAP	35	96	2
TAP	35	192	3
TAP	35	288	3
TAP	36	0	4
TAP	36	96	4
TAP	36	192	2
TAP	36	192	5
XTP	37	0	1
XTP	37	0	7
XTP	37	96	1
XTP	37	96	7
XTP	37	192	0
XTP	37	192	6
XTP	37	288	0
XTP	37	288	6
TAP	38	0	1
TAP	38	0	7
TAP	38	96	2
TAP	38	96	6
TAP	38	192	3
TAP	38	192	5
BRK	39	0	7
TAP	39	96	6
TAP	39	192	4
TAP	39	192	5
TAP	40	0	0
TAP	40	96	1
TAP	40	192	2
TAP	40	192	3
TAP	41	0	4
TAP	41	96	5
TAP	41	192	3
TAP	41	192	6
TAP	41	288	3
TAP	41	288	6
TAP	42	0	2
TAP	42	96	1
TAP	42	192	1
TAP	42	192	4
HLD	43	0	4	96
HLD	43	0	5	96
TAP	43	192	3
TAP	43	192	6
HLD	44	0	2	96
HLD	44	0	3	96
TAP	44	192	1
TAP	44	192	4
TAP	45	0	2
TAP	45	96	3
TAP	45	192	4
TAP	45	288	5
TAP	46	0	3
TAP	46	0	4
TAP	46	96	2
TAP	46	96	5
XTP	46	192	1
XTP	46	192	6
THO	47	0	0	384	C	0	L1
TTP	49	0	1	E	0	L1
TTP	49	192	0	C	0	L1
TTP	50	0	5	E	0	L1
TTP	50	192	2	E	0	L1
TTP	50	192	6	E	0	L1
TTP	51	0	1	B	0	L1
TTP	51	96	0	C	0	L1
TTP	51	192	5	B	0	L1
TTP	52	0	6	B	0	L1
TTP	52	96	0	C	0	L1
TTP	52	192	2	B	0	L1
TTP	53	0	3	B	0	L1
TTP	53	0	4	B	0	L1
TTP	53	192	2	B	0	L1
TTP	53	192	5	B	0	L1
THO	54	0	0	192	C	0	L1
TTP	55	0	5	B	0	L1
TTP	55	96	6	B	0	L1
TTP	55	192	7	E	0	L1
TTP	56	0	3	E	0	L1
TTP	56	96	2	B	0	L1
TTP	56	192	1	B	0	L1
TTP	57	0	4	E	0	L1
TTP	57	96	0	C	0	L1
TTP	57	192	0	E	0	L1
TTP	58	0	1	E	0	L1
TTP	58	0	7	E	0	L1
TTP	58	192	2	E	0	L1
TTP	58	192	6	E	0	L1
TTP	59	0	3	E	0	L1
TTP	59	96	3	B	0	L1
TTP	59	192	4	B	0	L1
TTP	60	0	6	E	0	L1
TTP	60	96	0	C	0	L1
TTP	60	192	2	E	0	L1
TTP	61	0	3	E	0	L1
TTP	61	0	5	E	0	L1
TTP	61	96	2	B	0	L1
TTP	61	96	5	B	0	L1
TTP	61	192	1	B	0	L1
TTP	61	192	6	B	0	L1
THO	62	0	0	384	C	1	L1
BRK	64	0	2
TAP	64	96	1
TAP	64	96	3
TAP	64	192	5
TAP	64	288	4
TAP	64	288	6
TAP	65	0	2
TAP	65	0	3
TAP	65	96	1
TAP	65	96	4
TAP	65	192	0
TAP	65	192	5
TAP	66	0	6
TAP	66	96	5
TAP	66	96	7
TAP	66	192	1
TAP	66	288	0
TAP	66	288	2
TAP	67	0	6
TAP	67	0	7
TAP	67	96	0
TAP	67	96	5
BRK	67	192	1
BRK	67	192	4
HLD	68	0	6	96
TAP	68	96	7
TAP	68	192	0
TAP	68	192	5
TAP	68	288	0
TAP	68	288	5
HLD	69	0	1	96
TAP	69	96	0
TAP	69	192	2
TAP	69	192	7
XTP	70	0	0
XTP	70	0	5
XTP	70	96	0
XTP	70	96	5
XTP	70	192	2
XTP	70	192	7
XTP	70	288	2
XTP	70	288	7
TAP	71	0	0
TAP	71	0	1
TAP	71	96	2
TAP	71	96	7
TAP	71	192	3
TAP	71	192	6
BRK	72	0	0
TAP	72	96	1
TAP	72	96	3
TAP	72	192	2
TAP	72	288	3
TAP	72	288	5
TAP	73	0	6
TAP	73	96	5
TAP	73	96	7
TAP	73	192	0
TAP	73	240	0
TAP	73	288	0
TAP	74	0	7
TAP	74	96	4
TAP	74	96	6
TAP	74	192	5
TAP	74	288	2
TAP	74	288	4
TAP	75	0	1
TAP	75	96	0
TAP	75	96	2
TAP	75	192	7
TAP	75	240	7
TAP	75	288	7
STR	76	0	0
SCR	76	0	0	96	192	3
STR	77	0	4
SCR	77	0	4	96	192	7
TAP	78	0	0
TAP	78	0	1
TAP	78	96	2
TAP	78	96	7
TAP	78	192	6
TAP	78	192	7
TAP	78	288	0
TAP	78	288	5
TAP	79	0	1
TAP	79	96	2
TAP	79	192	3
STR	79	288	4
SCL	79	288	4	96	240	6
BRK	81	0	4
BRK	81	0	5
TAP	81	96	6
TAP	81	192	2
TAP	81	192	3
TAP	81	288	1
TAP	82	0	4
TAP	82	0	5
TAP	82	96	6
TAP	82	192	7
TAP	82	288	7
TAP	83	0	0
TAP	83	0	1
TAP	83	96	2
TAP	83	192	6
TAP	83	192	7
TAP	83	288	5
TAP	84	0	2
TAP	84	0	3
TAP	84	96	1
TAP	84	96	4
XTP	84	192	0
XTP	84	192	5
BRK	84	288	6
BRK	84	288	7
TAP	85	0	4
TAP	85	0	5
TAP	85	96	3
TAP	85	96	6
TAP	85	192	2
TAP	85	192	3
TAP	85	288	1
TAP	85	288	4
TAP	86	0	3
TAP	86	0	4
TAP	86	96	2
TAP	86	96	5
TAP	86	192	1
TAP	86	192	6
TAP	87	0	3
TAP	87	96	2
TAP	87	96	4
TAP	87	192	1
TAP	87	192	5
STR	87	288	0
SI_	87	288	0	96	192	3
STR	87	288	6
SI_	87	288	6	96	192	3
BRK	88	288	1
BRK	88	288	6

T_REC_TAP	224
T_REC_BRK	16
T_REC_XTP	28
T_REC_HLD	25
T_REC_XHO	4
T_REC_STR	6
T_REC_BST	0
T_REC_XST	0
T_REC_TTP	40
T_REC_THO	4
T_REC_SLD	6
T_REC_ALL	353
T_NUM_TAP	298
T_NUM_BRK	16
T_NUM_HLD	33
T_NUM_SLD	6
T_NUM_ALL	353
T_JUDGE_TAP	314
T_JUDGE_HLD	102
T_JUDGE_SLD	6
T_JUDGE_ALL	422
TTM_EACHPAIRS	100
TTM_SCR_TAP	149000
TTM_SCR_BRK	41600
TTM_SCR_HLD	33000
TTM_SCR_SLD	9000
TTM_SCR_ALL	232600
TTM_SCR_S	224100
TTM_SCR_SS	231000
TTM_RAT_ACV	10069

