VERSION	0.00.00	1.03.00
FES_MODE	0
BPM_DEF	150.000	150.000	150.000	150.000
MET_DEF	4	4
RESOLUTION	384
CLK_DEF	384
COMPATIBLE_CODE	MA2

BPM	0	0	150.000
MET	0	0	4	4
MET	54	0	4	3
MET	54	288	4	4
MET	57	288	4	5
MET	59	0	4	4

TAP	2	0	3
TAP	2	192	3
TAP	3	0	3
TAP	4	0	4
TAP	4	192	4
TAP	5	0	4
TAP	6	0	3
TAP	6	192	3
TAP	7	0	4
TAP	7	192	4
HLD	8	0	3	192
HLD	9	0	4	192
TTP	10	0	3	B	0	L1
TTP	10	0	4	B	0	L1
TTP	11	0	2	B	0	L1
TTP	11	0	5	B	0	L1
THO	12	0	0	768	C	1	L1
TAP	15	0	0
TAP	15	96	0
TAP	15	192	0
TAP	16	0	1
TAP	16	96	1
TAP	16	192	1
TAP	17	0	2
TAP	17	96	2
TAP	17	192	2
TAP	18	0	3
TAP	18	96	3
TAP	18	192	3
TAP	18	192	4
TAP	19	0	4
TAP	19	96	4
TAP	19	192	4
TAP	20	0	5
TAP	20	96	5
TAP	20	192	5
TAP	21	0	6
TAP	21	96	6
TAP	21	192	6
BRK	22	0	0
BRK	22	0	7
TAP	23	0	0
TAP	23	192	0
TAP	24	0	7
TAP	24	192	7
TAP	25	0	6
TAP	25	192	6
TAP	26	0	5
TAP	26	96	5
TAP	26	192	5
TAP	27	0	4
TAP	27	192	4
TAP	28	0	3
TAP	28	192	3
TAP	29	0	2
TAP	29	192	2
TAP	30	0	1
TAP	30	96	1
BRK	30	192	1
TTP	31	0	0	B	0	L1
TTP	32	0	7	B	0	L1
TTP	33	0	1	B	0	L1
TTP	34	0	6	B	0	L1
TTP	35	0	3	B	0	L1
TTP	35	0	4	B	0	L1
TTP	36	0	2	B	0	L1
TTP	36	0	5	B	0	L1
THO	37	0	0	384	C	1	L1
XHO	39	0	7	192
TAP	40	0	7
TAP	40	96	7
TAP	40	192	7
TAP	41	0	0
TAP	41	96	0
TAP	41	192	0
TAP	42	0	7
TAP	42	96	7
TAP	42	192	0
TAP	42	192	7
HLD	43	0	1	192
HLD	44	0	2	192
TAP	45	0	3
TAP	45	0	4
TAP	45	192	3
TAP	45	192	4
TAP	46	0	3
TAP	46	96	4
TAP	46	192	3
STR	47	0	3
SI_	47	0	3	96	288	0
STR	49	0	4
SI_	49	0	4	96	288	7
HLD	51	0	0	192
HLD	52	0	7	192
TAP	53	0	0
TAP	53	96	0
TAP	53	192	7
TAP	53	288	7
HLD	54	0	0	288
TAP	55	96	0
TAP	55	96	1
XTP	55	288	2
TAP	56	96	2
TAP	56	96	3
XTP	56	288	4
TAP	57	96	4
TAP	57	96	5
XTP	57	288	6
HLD	58	96	6	192
HLD	58	96	7	192
STR	59	0	0
SI_	59	0	0	96	288	4
STR	61	0	7
SI_	61	0	7	96	288	3
TAP	63	0	2
TAP	63	192	2
BRK	64	0	4
TAP	64	96	4
TAP	64	192	4
TAP	65	0	3
TAP	65	96	3
TAP	65	192	3
TAP	66	0	4
TAP	66	96	4
TAP	66	192	3
TAP	66	288	3
TAP	67	0	4
TAP	67	96	4
TAP	67	192	3
TAP	67	192	4
TAP	68	0	5
TAP	68	96	5
TAP	68	192	5
TAP	69	0	6
TAP	69	96	6
TAP	69	192	6
TAP	70	0	7
TAP	70	96	7
TAP	70	192	0
TAP	70	288	0
HLD	71	0	0	192
HLD	71	0	7	192
BRK	72	0	7
TAP	72	96	0
TAP	72	192	0
TAP	72	288	0
TAP	73	0	1
TAP	73	96	1
HLD	73	192	1	192
TAP	74	96	2
TAP	74	192	2
TAP	74	288	2
TAP	75	0	3
TAP	75	96	3
TAP	75	192	3
TAP	75	192	4
TAP	76	0	4
TAP	76	96	4
TAP	76	192	4
TAP	76	192	5
TAP	77	0	3
TAP	77	96	3
TAP	77	192	2
TAP	77	192	3
TAP	78	0	4
TAP	78	0	5
TAP	78	192	2
TAP	78	192	3
TAP	79	0	4
TAP	79	96	4
TAP	79	192	3
TAP	79	288	3
HLD	80	0	2	288
HLD	80	0	5	288
TAP	81	0	2
TAP	81	192	2
TAP	82	0	1
TAP	82	96	1
TAP	82	192	0
TAP	82	192	1
TAP	83	0	0
TAP	83	192	0
TAP	84	0	7
TAP	84	96	7
TAP	84	192	6
TAP	84	192	7
TAP	85	0	6
TAP	85	192	6
TAP	86	0	5
TAP	86	96	5
TAP	86	192	4
TAP	86	192	5
TAP	87	0	4
TAP	87	192	4
TAP	88	0	3
TAP	88	96	3
TAP	88	192	4
BRK	88	288	4

T_REC_TAP	152
T_REC_BRK	6
T_REC_XTP	3
T_REC_HLD	14
T_REC_XHO	1
T_REC_STR	4
T_REC_BST	0
T_REC_XST	0
T_REC_TTP	12
T_REC_THO	2
T_REC_SLD	4
T_REC_ALL	198
T_NUM_TAP	171
T_NUM_BRK	6
T_NUM_HLD	17
T_NUM_SLD	4
T_NUM_ALL	198
T_JUDGE_TAP	177
T_JUDGE_HLD	90
T_JUDGE_SLD	4
T_JUDGE_ALL	271
TTM_EACHPAIRS	20
TTM_SCR_TAP	85500
TTM_SCR_BRK	15600
TTM_SCR_HLD	17000
TTM_SCR_SLD	6000
TTM_SCR_ALL	124100
TTM_SCR_S	119800
TTM_SCR_SS	123500
TTM_RAT_ACV	10048

