VERSION	0.00.00	1.03.00
FES_MODE	0
BPM_DEF	182.000	182.000	182.000	182.000
MET_DEF	4	4
RESOLUTION	384
CLK_DEF	387
COMPATIBLE_CODE	MA2

BPM	0	0	182.000
MET	0	0	4	4

TTP	1	0	3	E	0	M1
TTP	1	48	5	B	0	M1
TTP	1	96	1	B	0	M1
TTP	1	144	7	E	0	M1
STR	1	240	0
SCR	1	240	0	96	192	3
TAP	1	288	0
HLD	2	240	3	96
HLD	2	240	4	96
TTP	3	0	6	E	0	M1
TTP	3	48	3	B	0	M1
TTP	3	96	7	B	0	M1
TTP	3	144	2	E	0	M1
STR	3	240	4
SCR	3	240	4	96	192	7
TAP	3	288	4
TAP	4	192	0
TAP	4	192	7
TAP	4	288	1
TAP	4	288	6
HLD	5	0	3	96
TAP	5	0	4
XTP	5	128	5
XTP	5	160	4
XTP	5	192	6
XTP	5	320	2
XTP	5	352	3
XTP	6	0	1
TAP	6	64	0
TAP	6	64	7
TAP	6	128	1
TAP	6	128	6
STR	6	192	3
SI_	6	192	3	96	48	0
STR	6	192	4
SI_	6	192	4	96	48	7
BRK	6	288	3
BRK	6	288	4
TAP	7	0	0
TAP	7	0	7
TAP	7	96	3
TAP	7	96	5
TAP	7	168	7
TAP	7	192	7
TAP	7	240	3
TAP	7	288	2
TAP	7	288	4
TAP	7	336	1
HLD	7	336	5	192
TAP	8	48	6
TAP	8	96	7
TAP	8	144	0
TAP	8	240	1
TAP	8	240	6
TAP	8	288	1
TAP	8	288	6
TAP	9	0	3
TAP	9	0	4
TAP	9	96	4
TAP	9	96	6
TAP	9	168	1
TAP	9	192	1
TAP	9	240	7
TAP	9	288	0
TAP	9	288	6
HLD	9	336	1	336
HLD	9	336	5	336
TAP	12	0	2
TAP	12	96	2
TAP	12	192	2
TAP	12	288	2
TAP	13	0	0
TAP	13	96	0
TAP	13	192	0
TAP	13	288	0
TAP	14	0	7
TAP	14	96	7
TAP	14	192	7
TAP	14	288	7
TAP	15	0	5
HLD	15	96	5	96
HLD	15	192	4	96
HLD	15	288	3	96
TAP	16	0	2
TAP	16	96	2
TAP	16	96	3
TAP	16	192	1
TAP	16	288	2
TAP	16	288	3
TAP	17	0	4
TAP	17	96	4
TAP	17	96	5
TAP	17	192	6
TAP	17	288	4
TAP	17	288	5
TAP	18	0	3
TAP	18	96	2
TAP	18	96	4
TAP	18	192	4
TAP	18	288	3
TAP	18	288	5
BRK	19	0	1
BRK	19	0	6
HLD	20	0	1	96
HLD	20	0	6	96
TAP	20	144	5
TAP	20	168	4
TAP	20	192	5
TAP	20	240	3
TAP	20	240	6
TAP	20	288	2
TAP	20	336	1
TAP	20	336	4
HLD	21	0	5	96
HLD	21	96	7	96
HLD	21	192	0	96
HLD	21	288	2	96
HLD	22	0	5	96
TAP	22	96	4
TAP	22	144	2
TAP	22	168	3
TAP	22	192	2
TAP	22	240	1
TAP	22	240	4
TAP	22	288	5
TAP	22	336	3
TAP	22	336	6
STR	23	0	2
SUL	23	0	2	96	192	0
TAP	23	96	3
TAP	23	192	5
TAP	23	288	7
HLD	24	0	5	96
TAP	24	48	7
HLD	24	96	3	96
TAP	24	144	7
HLD	24	192	5	96
TAP	24	240	7
BRK	24	288	3
HLD	25	0	2	96
TAP	25	48	0
HLD	25	96	4	96
TAP	25	144	0
HLD	25	192	2	96
TAP	25	240	0
BRK	25	288	4
TAP	26	0	1
TAP	26	48	2
TAP	26	48	7
TAP	26	96	6
TAP	26	144	0
TAP	26	144	5
TAP	26	192	1
TAP	26	240	2
TAP	26	240	7
TAP	26	288	6
TAP	26	336	0
TAP	26	336	5
HLD	27	0	4	96
HLD	27	96	7	96
HLD	27	192	0	96
HLD	27	288	3	96
STR	28	0	4
SCR	28	0	4	96	48	7
TTP	28	96	1	B	0	M1
TTP	28	96	2	B	0	M1
STR	28	192	3
SCL	28	192	3	96	48	0
TTP	28	288	5	B	0	M1
TTP	28	288	6	B	0	M1
STR	29	0	4
SCR	29	0	4	96	48	7
TTP	29	96	0	B	0	M1
TTP	29	96	1	E	0	M1
STR	29	192	3
SCL	29	192	3	96	48	0
TTP	29	288	7	B	0	M1
TTP	29	288	7	E	0	M1
STR	30	0	5
SCR	30	0	5	96	48	0
TTP	30	96	6	B	0	M1
TTP	30	96	7	B	0	M1
STR	30	192	1
SCR	30	192	1	96	48	4
TTP	30	288	2	B	0	M1
TTP	30	288	3	B	0	M1
STR	31	0	0
SCL	31	0	0	96	48	5
TTP	31	96	6	B	0	M1
TTP	31	96	7	B	0	M1
STR	31	192	4
SCL	31	192	4	96	48	1
TTP	31	288	2	B	0	M1
TTP	31	288	3	B	0	M1
TAP	32	0	5
TAP	32	24	4
TAP	32	48	5
TTP	32	96	6	B	0	M1
TTP	32	96	7	E	0	M1
TAP	32	192	2
TAP	32	216	3
TAP	32	240	2
TTP	32	288	1	B	0	M1
TTP	32	288	1	E	0	M1
TAP	33	0	6
TAP	33	24	4
TAP	33	48	6
TTP	33	96	0	B	0	M1
TTP	33	96	7	B	0	M1
TAP	33	192	1
TAP	33	216	3
TAP	33	240	1
TTP	33	288	0	B	0	M1
TTP	33	288	7	B	0	M1
TAP	34	0	4
TAP	34	24	3
TAP	34	48	4
TAP	34	72	3
TTP	34	96	0	C	0	M1
TTP	34	96	6	B	0	M1
TAP	34	192	0
TAP	34	216	7
TAP	34	240	0
TAP	34	264	7
TTP	34	288	0	C	0	M1
TTP	34	288	1	B	0	M1
STR	35	0	7
SCL	35	0	7	96	48	4
SCR	35	0	7	96	48	2
STR	35	96	7
SF_	35	96	7	96	48	3
BRK	35	192	7
STR	36	0	5
SCR	36	0	5	96	312	2
TAP	36	144	3
TAP	36	192	3
TAP	36	288	4
STR	37	0	5
SCR	37	0	5	96	240	2
TAP	37	144	4
TAP	37	192	4
TAP	37	288	5
HLD	38	0	6	288
TAP	38	96	7
TAP	38	192	4
TAP	38	288	5
TAP	39	0	5
TAP	39	0	7
TAP	39	96	0
TAP	39	96	7
TAP	39	192	0
TAP	39	192	1
TAP	39	288	1
TAP	39	288	2
STR	40	0	2
SCL	40	0	2	96	312	5
TAP	40	0	3
TAP	40	144	4
TAP	40	192	4
TAP	40	288	3
STR	41	0	2
SCL	41	0	2	96	240	5
TAP	41	144	3
TAP	41	192	3
TAP	41	288	2
HLD	42	0	1	144
TAP	42	144	2
HLD	42	192	2	480
STR	42	288	1
SCR	42	288	1	96	288	0
TTP	44	0	5	B	0	M1
TTP	44	144	3	E	0	M1
TTP	44	288	0	C	0	M1
TAP	45	144	4
TAP	45	168	3
TAP	45	192	4
TAP	45	288	2
TAP	45	288	5
TTP	46	0	3	B	0	M1
TTP	46	144	4	B	0	M1
THO	46	288	0	288	C	1	M1
TAP	48	0	0
TAP	48	0	7
TAP	48	96	1
TAP	48	128	1
TAP	48	160	1
HLD	48	192	3	96
TAP	48	288	4
TAP	49	0	3
TAP	49	0	4
TAP	49	96	5
TAP	49	128	5
TAP	49	160	5
HLD	49	192	7	96
TAP	49	288	0
TAP	50	0	2
TAP	50	0	3
TAP	50	96	1
TAP	50	128	1
TAP	50	160	1
TAP	50	192	0
TAP	50	224	0
TAP	50	256	0
TAP	50	288	7
TAP	50	320	7
TAP	50	352	7
HLD	51	0	6	192
TAP	51	96	4
TAP	51	128	4
TAP	51	160	4
HLD	51	192	4	96
TAP	51	288	3
TAP	51	320	3
TAP	51	352	3
TAP	52	0	2
TAP	52	0	3
TAP	52	96	1
TAP	52	96	4
TAP	52	192	4
TAP	52	192	5
TAP	52	288	3
TAP	52	288	6
TAP	53	0	3
TAP	53	0	4
TAP	53	96	1
TAP	53	96	2
TAP	53	192	0
TAP	53	192	7
TAP	53	288	5
TAP	53	288	6
TAP	54	0	3
TAP	54	0	4
TAP	54	48	1
TAP	54	72	0
TAP	54	96	1
TAP	54	144	6
TAP	54	168	7
TAP	54	192	6
TAP	54	240	3
TAP	54	264	4
TAP	54	288	3
TAP	54	312	4
TAP	54	336	3
TAP	55	0	1
TAP	55	0	6
TAP	55	48	2
TAP	55	72	3
TAP	55	96	2
TAP	55	144	5
TAP	55	168	4
TAP	55	192	5
TAP	55	240	0
TAP	55	264	7
TAP	55	288	0
TAP	55	312	7
TAP	55	336	0
TAP	55	360	7
HLD	56	0	0	144
TAP	56	96	4
HLD	56	144	4	144
TAP	56	240	3
TAP	56	288	3
BRK	56	336	1
BRK	56	336	6
BRK	57	48	3
BRK	57	48	4
BST	57	96	0
SCR	57	96	0	96	144	7
BRK	57	96	7
BRK	57	144	0
BRK	57	144	7
STR	58	0	6
SCR	58	0	6	96	96	1
TAP	58	96	4
STR	58	192	5
SCL	58	192	5	96	96	2
TAP	58	288	7
STR	59	0	6
SI_	59	0	6	96	96	1
TAP	59	96	4
STR	59	192	5
SI_	59	192	5	96	96	2
TAP	59	288	7
TAP	60	0	3
STR	60	0	6
SV_	60	0	6	96	96	1
TAP	60	96	4
STR	60	192	5
SV_	60	192	5	96	96	2
TAP	60	288	0
STR	61	0	7
SXL	61	0	7	96	192	3
SXR	61	0	7	96	192	3
TAP	62	0	3
HLD	62	0	4	288
TAP	62	96	5
TTP	62	192	1	B	0	M1
TTP	62	192	2	E	0	M1
TTP	62	192	2	B	0	M1
HLD	63	0	4	288
TAP	63	0	5
TAP	63	96	3
TTP	63	192	1	B	0	M1
TTP	63	192	2	B	0	M1
TTP	63	192	2	E	0	M1
STR	64	0	6
SCL	64	0	6	96	96	3
TAP	64	0	7
TAP	64	96	0
TAP	64	192	1
TAP	64	288	2
TAP	64	288	3
STR	65	0	4
SI_	65	0	4	96	48	0
STR	65	0	5
SI_	65	0	5	96	48	1
BRK	65	192	1
TAP	65	208	2
TAP	65	224	3
TAP	65	240	4
TAP	65	256	5
TAP	65	272	6
BRK	65	288	7
TAP	66	0	1
TAP	66	0	7
TAP	66	96	3
STR	66	96	5
SUR	66	96	5	96	48	2
TAP	66	160	1
STR	66	192	1
SI_	66	192	1	96	32	5
BRK	66	288	7
TAP	67	0	0
TAP	67	0	6
TAP	67	96	0
STR	67	96	2
SUL	67	96	2	96	48	5
TAP	67	160	4
STR	67	192	4
SI_	67	192	4	96	48	7
BRK	67	288	0
STR	68	0	0
SI_	68	0	0	96	48	4
TAP	68	0	6
TAP	68	96	0
TAP	68	96	1
TAP	68	192	0
STR	68	192	7
SI_	68	192	7	96	48	3
TAP	68	288	6
TAP	68	288	7
STR	69	0	0
SI_	69	0	0	96	48	3
STR	69	0	7
SI_	69	0	7	96	48	4
TAP	69	96	0
TAP	69	96	7
BRK	69	192	1
BRK	69	192	6
HLD	70	0	3	96
TAP	70	0	4
STR	70	96	1
SUR	70	96	1	96	96	6
TAP	70	160	0
TAP	70	192	0
BRK	70	288	7
TAP	71	0	3
HLD	71	0	4	96
STR	71	96	6
SUL	71	96	6	96	96	1
TAP	71	160	7
TAP	71	192	7
BRK	71	288	0
TAP	72	0	3
TAP	72	0	4
TAP	72	96	2
TAP	72	128	3
TAP	72	160	1
TAP	72	192	5
TAP	72	224	4
TAP	72	256	6
TAP	72	288	2
TAP	72	320	3
TAP	72	352	1
HLD	73	0	6	192
TAP	73	96	7
STR	73	192	0
SI_	73	192	0	96	48	4
BRK	73	288	0
TAP	74	0	4
TAP	74	0	6
TAP	74	96	3
TAP	74	96	4
TAP	74	192	1
TAP	74	192	3
TAP	74	288	7
TAP	74	320	0
TAP	74	352	7
TAP	75	0	1
TAP	75	0	6
TAP	75	96	4
TAP	75	96	5
TAP	75	192	2
TAP	75	192	3
TAP	75	288	7
TAP	75	320	0
TAP	75	352	7
TAP	76	0	1
TAP	76	0	6
TTP	76	96	0	C	0	M1
TTP	76	96	1	B	0	M1
TTP	76	96	6	B	0	M1
TAP	76	192	3
TAP	76	192	4
TTP	76	288	0	C	0	M1
TTP	76	288	2	B	0	M1
TTP	76	288	5	B	0	M1
HLD	77	0	1	672
HLD	77	0	6	576
TAP	79	0	5
TAP	79	48	5
TAP	79	96	3
TAP	79	144	3
TAP	79	240	4
TAP	79	288	4
TAP	79	336	2
TAP	80	48	3
TAP	80	48	4
TAP	80	96	3
TAP	80	96	4
TAP	80	192	2
TAP	80	192	5
TAP	80	288	2
TAP	80	288	5
TAP	81	0	1
TAP	81	48	0
TAP	81	96	7
HLD	81	144	6	96
TAP	81	240	7
TAP	81	288	0
HLD	81	336	1	144
TAP	82	48	3
TAP	82	96	3
TAP	82	144	0
TAP	82	144	7
TAP	82	240	3
TAP	82	240	4
BRK	82	336	1
BRK	82	336	6
TAP	83	48	4
TAP	83	96	5
TAP	83	96	7
HLD	83	144	0	96
TAP	83	144	6
TAP	83	240	3
TAP	83	288	3
HLD	83	336	2	192
TAP	84	48	4
TAP	84	96	5
TAP	84	144	6
TAP	84	240	1
TAP	84	240	7
TAP	84	288	1
TAP	84	288	7
TAP	85	0	0
TAP	85	0	6
TAP	85	96	0
TAP	85	96	2
TAP	85	192	3
TAP	85	240	3
TAP	85	288	2
TAP	85	288	4
HLD	85	336	1	96
HLD	85	336	5	96
HLD	86	144	2	96
HLD	86	144	6	96
BRK	86	288	3
BRK	86	288	7
TTP	87	0	0	B	0	M1
TTP	87	0	7	B	0	M1
TTP	87	96	6	B	0	M1
TTP	87	192	5	B	0	M1
TTP	87	288	4	B	0	M1
TTP	88	0	3	B	0	M1
TTP	88	96	2	B	0	M1
TTP	88	192	1	B	0	M1
TTP	88	288	0	B	0	M1
TAP	89	0	7
TAP	89	96	5
TAP	89	96	6
TAP	89	192	4
TAP	89	288	2
TAP	89	288	3
TAP	90	0	1
TAP	90	96	0
TAP	90	96	7
TAP	90	192	1
TAP	90	192	6
TAP	91	0	1
TAP	91	48	1
TAP	91	96	3
HLD	91	144	3	96
TAP	91	240	4
TAP	91	288	4
HLD	91	336	6	96
TAP	92	48	4
TAP	92	96	4
HLD	92	144	3	144
TAP	92	288	1
STR	93	0	0
SCR	93	0	0	96	192	3
STR	93	0	7
SCL	93	0	7	96	192	4
TAP	94	0	5
TAP	94	96	3
TAP	94	96	4
TAP	94	192	2
TAP	94	288	3
TAP	94	288	4
TAP	95	0	4
TAP	95	24	3
TAP	95	48	4
TAP	95	72	3
TAP	95	96	5
TAP	95	120	2
TAP	95	144	5
TAP	95	168	2
TAP	95	192	6
TAP	95	216	1
TAP	95	240	6
TAP	95	264	1
TAP	95	288	7
TAP	95	312	0
TAP	95	336	7
HLD	96	0	1	96
HLD	96	0	6	96
TAP	96	144	3
TAP	96	144	4
TAP	96	168	3
TAP	96	168	4
BRK	96	192	3
BRK	96	192	4

T_REC_TAP	399
T_REC_BRK	29
T_REC_XTP	6
T_REC_HLD	55
T_REC_XHO	0
T_REC_STR	43
T_REC_BST	1
T_REC_XST	0
T_REC_TTP	62
T_REC_THO	1
T_REC_SLD	46
T_REC_ALL	642
T_NUM_TAP	510
T_NUM_BRK	30
T_NUM_HLD	56
T_NUM_SLD	46
T_NUM_ALL	642
T_JUDGE_TAP	540
T_JUDGE_HLD	181
T_JUDGE_SLD	46
T_JUDGE_ALL	767
TTM_EACHPAIRS	114
TTM_SCR_TAP	255000
TTM_SCR_BRK	78000
TTM_SCR_HLD	56000
TTM_SCR_SLD	69000
TTM_SCR_ALL	458000
TTM_SCR_S	441350
TTM_SCR_SS	455000
TTM_RAT_ACV	10065

