VERSION	0.00.00	1.03.00
FES_MODE	0
BPM_DEF	182.000	182.000	182.000	182.000
MET_DEF	4	4
RESOLUTION	384
CLK_DEF	384
COMPATIBLE_CODE	MA2

BPM	0	0	182.000
MET	0	0	4	4

TTP	1	0	5	E	0	M1
TTP	1	96	4	E	0	M1
TTP	1	192	3	E	0	M1
THO	1	288	0	240	C	0	M1
TTP	3	0	3	E	0	M1
TTP	3	96	4	E	0	M1
TTP	3	192	5	E	0	M1
THO	3	288	0	288	C	0	M1
TTP	5	0	4	B	0	M1
TTP	5	0	5	B	0	M1
TTP	5	0	6	E	0	M1
TTP	5	192	2	E	0	M1
TTP	5	192	2	B	0	M1
TTP	5	192	3	B	0	M1
TAP	6	0	5
TAP	6	96	4
TAP	6	192	3
TAP	6	192	4
BRK	6	288	1
BRK	6	288	6
XTP	7	0	0
TAP	7	96	1
TAP	7	96	7
TAP	7	144	1
TAP	7	144	7
TAP	7	240	2
TAP	7	288	2
TAP	7	288	3
TAP	8	0	4
TAP	8	96	3
TAP	8	96	5
TAP	8	144	3
TAP	8	144	5
TAP	8	240	6
TAP	8	288	6
TAP	8	288	7
TAP	9	0	0
TAP	9	48	0
TAP	9	96	7
TAP	9	144	7
TAP	9	192	0
XTP	9	288	1
XTP	9	288	6
XHO	9	336	1	432
XHO	9	336	6	432
TAP	12	0	2
TAP	12	96	2
TAP	12	192	3
TAP	12	288	3
TAP	13	0	4
TAP	13	96	4
TAP	13	192	5
TAP	13	288	5
TAP	14	0	3
TAP	14	96	3
TAP	14	192	4
TAP	14	288	4
TAP	15	0	5
TAP	15	96	5
TAP	15	192	6
TAP	15	288	7
TAP	16	0	0
TAP	16	96	0
TAP	16	192	0
TAP	16	192	7
TAP	17	0	2
TAP	17	96	2
TAP	17	192	2
TAP	17	192	3
TAP	18	0	4
TAP	18	96	4
TAP	18	192	2
TAP	18	288	2
STR	19	0	1
SCR	19	0	1	96	96	4
STR	19	0	5
SCR	19	0	5	96	96	0
BRK	20	0	2
BRK	20	0	5
TAP	20	96	3
TAP	20	96	4
TAP	20	192	5
TAP	20	288	3
TAP	20	288	6
TAP	21	0	2
TAP	21	0	5
TAP	21	96	3
TAP	21	96	4
TAP	21	192	2
TAP	21	288	1
TAP	21	288	4
TAP	22	0	2
HLD	22	0	5	288
TAP	22	96	3
TAP	22	192	4
STR	22	288	6
SCR	22	288	6	96	192	3
XTP	23	192	7
XTP	23	288	7
TAP	24	0	1
TAP	24	96	0
TAP	24	192	2
TAP	24	192	7
TAP	24	288	3
TAP	25	0	6
TAP	25	96	7
TAP	25	192	0
TAP	25	192	5
TAP	25	288	4
TAP	26	0	1
TAP	26	0	3
TAP	26	96	1
TAP	26	192	3
TAP	26	192	5
TAP	26	288	5
XTP	27	0	3
XTP	27	96	2
XTP	27	192	1
XTP	27	288	0
XTP	27	288	7
HLD	28	0	6	96
TAP	28	96	4
TAP	28	192	5
TAP	28	240	5
TAP	28	288	5
TAP	29	0	4
TAP	29	0	5
TAP	29	96	3
TAP	29	96	4
TAP	29	192	2
TAP	29	192	3
TAP	29	288	0
HLD	30	0	1	96
TAP	30	96	3
TAP	30	192	2
TAP	30	240	2
TAP	30	288	2
TAP	31	0	2
TAP	31	0	3
TAP	31	96	3
TAP	31	96	4
TAP	31	192	4
TAP	31	192	5
TAP	31	288	3
TAP	31	288	6
TAP	32	0	7
TAP	32	48	7
TAP	32	96	7
TAP	32	192	5
TAP	32	240	5
TAP	32	288	5
TAP	33	0	3
TAP	33	48	3
TAP	33	96	3
TAP	33	192	1
TAP	33	240	1
TAP	33	288	1
TAP	34	0	0
TAP	34	0	6
TAP	34	96	4
TAP	34	192	1
TAP	34	192	7
TAP	34	288	3
BRK	35	0	4
BRK	35	0	5
BRK	35	96	2
BRK	35	96	3
BRK	35	192	1
BRK	35	192	6
STR	36	0	6
SI_	36	0	6	96	96	3
STR	36	192	0
SI_	36	192	0	96	96	4
TAP	37	0	6
TAP	37	96	6
TAP	37	192	7
TAP	37	288	0
STR	37	288	1
SXR	37	288	1	96	288	4
TAP	39	0	5
TAP	39	96	5
TAP	39	192	6
TAP	39	288	6
STR	40	0	0
SI_	40	0	0	96	96	4
TAP	40	0	7
STR	40	192	6
SI_	40	192	6	96	96	3
TAP	41	0	1
TAP	41	96	1
TAP	41	192	0
STR	41	288	7
SCL	41	288	7	96	192	2
STR	42	288	0
SCR	42	288	0	96	192	5
TTP	44	0	0	B	0	M1
TTP	44	0	1	B	0	M1
TTP	44	144	4	B	0	M1
TTP	44	144	5	B	0	M1
TTP	44	288	2	B	0	M1
TTP	44	288	3	B	0	M1
TAP	45	192	4
TAP	45	288	4
TTP	46	0	2	B	0	M1
TTP	46	0	3	B	0	M1
TTP	46	144	5	B	0	M1
TTP	46	144	6	B	0	M1
THO	46	288	0	192	C	0	M1
XHO	48	0	2	192
TAP	48	0	4
TAP	48	96	4
TAP	48	160	3
TAP	48	192	3
TAP	48	288	1
TAP	49	0	3
HLD	49	0	5	192
TAP	49	96	3
TAP	49	160	4
TAP	49	192	4
TAP	49	288	6
HLD	50	0	1	192
TAP	50	0	4
TAP	50	96	4
TAP	50	160	3
TAP	50	192	3
TAP	50	288	0
XTP	51	0	0
XTP	51	0	7
XTP	51	96	6
XTP	51	192	4
XTP	51	192	5
XTP	51	288	3
XTP	51	288	4
TAP	52	0	2
TAP	52	0	3
TAP	52	96	1
TAP	52	192	4
TAP	52	192	5
TAP	52	288	6
TAP	53	0	1
TAP	53	0	3
TAP	53	96	0
TAP	53	192	4
TAP	53	192	6
TAP	53	288	7
TAP	54	0	2
TAP	54	0	3
TAP	54	96	0
TAP	54	96	7
TAP	54	192	4
TAP	54	192	5
TAP	54	288	0
TAP	54	288	7
TAP	55	0	2
TAP	55	48	2
TAP	55	96	4
TAP	55	144	4
TAP	55	192	3
TAP	55	240	3
STR	55	288	5
SCR	55	288	5	96	192	2
XTP	56	0	2
XTP	56	336	0
XTP	56	336	7
XTP	57	48	1
XTP	57	48	6
XTP	57	96	1
XTP	57	96	6
BRK	57	144	1
BRK	57	144	6
TAP	58	0	3
HLD	58	0	4	288
TAP	58	192	5
TAP	58	288	3
HLD	59	0	3	288
TAP	59	0	4
TAP	59	192	2
TAP	59	288	4
TAP	60	0	4
HLD	60	0	5	288
TAP	60	192	6
TAP	60	288	4
TAP	61	0	5
TAP	61	96	4
TAP	61	192	3
TAP	61	288	2
TAP	61	288	4
HLD	62	0	2	192
TAP	62	0	3
TAP	62	96	3
TAP	62	192	1
TAP	62	288	0
HLD	63	0	6	192
TAP	63	0	7
TAP	63	96	7
TAP	63	192	5
TAP	63	288	4
TAP	64	0	2
TAP	64	0	3
TAP	64	96	1
TAP	64	96	3
TAP	64	192	4
TAP	64	192	5
TAP	64	288	4
TAP	64	288	6
TAP	65	0	0
TAP	65	0	7
TAP	65	96	3
TAP	65	96	4
BRK	65	192	1
BRK	65	192	6
HLD	66	0	5	64
TAP	66	64	4
TAP	66	96	6
HLD	66	192	2	64
TAP	66	256	3
TAP	66	288	1
HLD	67	0	6	64
TAP	67	64	7
TAP	67	96	5
TAP	67	192	4
TAP	67	192	5
TAP	67	288	3
TAP	67	288	4
HLD	68	0	2	64
TAP	68	64	3
TAP	68	96	1
HLD	68	192	5	64
TAP	68	256	4
TAP	68	288	6
TAP	69	0	0
TAP	69	0	1
TAP	69	96	2
TAP	69	96	3
BRK	69	192	1
BRK	69	192	4
HLD	70	0	5	64
TAP	70	64	4
TAP	70	96	6
TAP	70	160	6
HLD	70	192	2	64
TAP	70	256	3
TAP	70	288	1
TAP	70	352	1
HLD	71	0	6	64
TAP	71	64	7
TAP	71	96	5
TAP	71	160	5
TAP	71	192	4
TAP	71	288	1
TAP	71	288	6
HLD	72	0	2	64
TAP	72	64	3
TAP	72	96	1
TAP	72	160	1
HLD	72	192	5	64
TAP	72	256	4
TAP	72	288	6
TAP	72	352	6
STR	73	0	0
SF_	73	0	0	96	96	4
BRK	73	288	2
BRK	73	288	6
TAP	74	0	4
TAP	74	0	5
TAP	74	96	4
TAP	74	96	6
TAP	74	192	6
TAP	74	192	7
TAP	74	288	0
TAP	74	320	7
TAP	74	352	0
TAP	75	0	7
TAP	75	96	1
TAP	75	96	3
TAP	75	192	2
TAP	75	192	3
TAP	75	288	4
TAP	75	320	3
TAP	75	352	4
XTP	76	0	3
XTP	76	96	4
XHO	76	96	6	864
XTP	76	192	7
XTP	76	288	0
XHO	77	0	1	576
TAP	79	0	2
TAP	79	0	4
TAP	79	96	3
TAP	79	144	3
TAP	79	240	4
TAP	79	336	3
TAP	79	336	5
TAP	80	48	4
TAP	80	96	4
TAP	80	192	2
TAP	80	192	5
TAP	80	288	2
TAP	80	288	5
THO	81	0	0	384	C	0	M1
XTP	82	144	0
XTP	82	144	7
XTP	82	240	0
XTP	82	240	7
BRK	82	336	1
BRK	82	336	6
XTP	83	48	3
XTP	83	48	4
XTP	83	96	3
XTP	83	96	4
HLD	83	192	2	96
TAP	83	192	7
TAP	83	288	3
TAP	84	0	0
HLD	84	0	5	96
TAP	84	96	4
HLD	84	192	2	96
TAP	84	192	3
TAP	84	288	7
TAP	85	0	4
TAP	85	0	6
TAP	85	96	3
TAP	85	96	4
TAP	85	192	1
TAP	85	192	3
TAP	85	288	1
XHO	85	336	1	96
XHO	85	336	7	96
XHO	86	144	0	96
XHO	86	144	6	96
BRK	86	288	0
BRK	86	288	6
TTP	87	0	5	B	0	M1
TTP	87	96	4	B	0	M1
TTP	87	192	3	B	0	M1
TTP	87	288	2	B	0	M1
TTP	88	0	0	C	0	M1
TTP	88	192	2	B	0	M1
TTP	88	192	5	B	0	M1
TTP	89	0	2	E	0	M1
TTP	89	96	3	E	0	M1
TTP	89	192	4	E	0	M1
TTP	89	288	5	E	0	M1
TTP	90	0	0	C	0	M1
TTP	90	192	2	E	0	M1
TTP	90	192	2	B	0	M1
TTP	90	192	5	B	0	M1
TTP	90	192	6	E	0	M1
STR	91	0	0
SCR	91	0	0	96	96	3
STR	91	192	7
SCL	91	192	7	96	96	4
TAP	92	0	0
TAP	92	96	1
TAP	92	192	2
TAP	92	288	3
STR	93	0	4
SCR	93	0	4	96	96	7
STR	93	192	3
SCL	93	192	3	96	96	0
TAP	94	0	4
TAP	94	96	5
TAP	94	192	6
TAP	94	288	7
TTP	95	0	1	E	0	M1
TTP	95	48	2	E	0	M1
TTP	95	96	3	E	0	M1
TTP	95	144	4	E	0	M1
TTP	95	192	5	E	0	M1
TTP	95	240	6	E	0	M1
TTP	95	288	7	E	0	M1
TTP	95	336	0	E	0	M1
TTP	96	0	0	C	1	M1
XTP	96	144	0
XTP	96	144	7
BRK	96	192	0
BRK	96	192	7

T_REC_TAP	300
T_REC_BRK	24
T_REC_XTP	38
T_REC_HLD	23
T_REC_XHO	9
T_REC_STR	16
T_REC_BST	0
T_REC_XST	0
T_REC_TTP	47
T_REC_THO	4
T_REC_SLD	16
T_REC_ALL	477
T_NUM_TAP	401
T_NUM_BRK	24
T_NUM_HLD	36
T_NUM_SLD	16
T_NUM_ALL	477
T_JUDGE_TAP	425
T_JUDGE_HLD	153
T_JUDGE_SLD	16
T_JUDGE_ALL	594
TTM_EACHPAIRS	103
TTM_SCR_TAP	200500
TTM_SCR_BRK	62400
TTM_SCR_HLD	36000
TTM_SCR_SLD	24000
TTM_SCR_ALL	322900
TTM_SCR_S	310900
TTM_SCR_SS	320500
TTM_RAT_ACV	10074

