VERSION	0.00.00	1.03.00
FES_MODE	0
BPM_DEF	182.000	182.000	182.000	182.000
MET_DEF	4	4
RESOLUTION	384
CLK_DEF	384
COMPATIBLE_CODE	MA2

BPM	0	0	182.000
MET	0	0	4	4

STR	1	0	5
SCL	1	0	5	96	480	2
STR	3	0	1
SCL	3	0	1	96	480	6
TAP	5	0	4
TAP	5	0	5
TAP	5	192	2
TAP	5	192	3
TAP	6	0	4
TAP	6	96	4
TAP	6	192	3
BRK	7	0	1
TAP	7	96	2
TAP	7	192	3
TAP	7	288	4
TAP	8	0	5
TAP	8	96	5
TAP	8	192	4
STR	8	288	3
SCR	8	288	3	96	384	0
TAP	10	192	1
TAP	10	192	6
THO	11	0	0	192	C	0	L1
TTP	12	0	6	E	0	L1
TTP	12	192	5	B	0	L1
TTP	13	0	4	B	0	L1
TTP	13	192	4	E	0	L1
TTP	14	0	3	B	0	L1
TTP	14	192	2	B	0	L1
TTP	15	0	1	B	0	L1
TTP	15	0	2	E	0	L1
TTP	16	0	3	E	0	L1
TTP	16	192	4	E	0	L1
TTP	17	0	5	E	0	L1
TTP	17	192	0	C	0	L1
TTP	18	0	0	B	0	L1
TTP	18	0	7	B	0	L1
TTP	18	192	1	B	0	L1
TTP	18	192	6	B	0	L1
THO	19	0	0	192	C	0	L1
XTP	20	0	5
TAP	20	96	5
TAP	20	192	4
TAP	21	0	3
TAP	21	96	3
TAP	21	192	2
TAP	22	0	0
TAP	22	96	0
TAP	22	192	7
TAP	23	0	0
TAP	23	0	7
TAP	23	96	0
TAP	23	96	7
TAP	23	192	1
TAP	23	192	6
TAP	24	0	2
TAP	24	96	2
TAP	24	192	4
TAP	25	0	6
TAP	25	96	6
TAP	25	192	0
STR	26	0	1
SI_	26	0	1	96	288	4
STR	26	0	7
SI_	26	0	7	96	288	4
XTP	27	192	3
XTP	27	192	5
HLD	28	0	6	192
HLD	28	192	5	192
HLD	29	0	4	192
HLD	29	192	3	192
HLD	30	0	2	192
HLD	30	192	1	192
TAP	31	0	0
TAP	31	96	0
TAP	31	192	0
XHO	32	0	1	192
HLD	32	192	2	192
HLD	33	0	3	192
HLD	33	192	4	192
HLD	34	0	5	192
HLD	34	192	6	192
XTP	35	0	7
XTP	35	96	7
XTP	35	192	0
XTP	35	192	6
STR	36	0	7
SCL	36	0	7	96	288	4
TAP	37	192	3
STR	38	0	2
SCL	38	0	2	96	288	7
TAP	39	192	6
STR	40	0	5
SCL	40	0	5	96	288	2
TAP	41	192	1
HLD	42	0	0	192
HLD	42	192	7	192
TAP	43	0	0
TAP	43	96	0
XTP	43	192	1
XTP	43	192	6
THO	44	0	0	1056	C	0	L1
XTP	47	192	1
XTP	47	288	1
HLD	48	0	2	192
TAP	48	192	3
HLD	49	0	5	192
TAP	49	192	4
HLD	50	0	1	192
TAP	50	192	3
HLD	51	0	6	192
TAP	51	192	4
TAP	52	0	3
TAP	52	96	3
TAP	52	192	2
TAP	52	288	2
TAP	53	0	1
TAP	53	96	1
TAP	53	192	0
TAP	53	192	1
TAP	54	0	4
TAP	54	96	4
TAP	54	192	5
TAP	54	288	5
TAP	55	0	6
TAP	55	96	6
XTP	55	192	1
XTP	55	192	6
THO	56	0	0	336	C	1	L1
XTP	57	192	0
XTP	57	192	7
HLD	58	0	4	192
HLD	58	0	6	192
HLD	59	0	3	192
HLD	59	0	5	192
HLD	60	0	3	192
HLD	60	0	4	192
HLD	61	0	2	192
HLD	61	0	4	192
HLD	62	0	5	192
TAP	62	96	4
TAP	62	192	4
HLD	63	0	1	192
TAP	63	96	3
TAP	63	192	3
HLD	64	0	6	192
TAP	64	96	4
TAP	64	192	4
TAP	65	0	3
TAP	65	0	4
TAP	65	96	2
TAP	65	96	5
BRK	65	192	1
BRK	65	192	6
TAP	66	0	0
TAP	66	96	1
TAP	66	192	2
TAP	66	192	3
TAP	66	288	3
TAP	66	288	4
TAP	67	0	5
TAP	67	96	4
TAP	67	192	3
TAP	67	192	6
TAP	68	0	7
TAP	68	96	6
TAP	68	192	4
TAP	68	192	5
TAP	68	288	3
TAP	68	288	4
TAP	69	0	2
TAP	69	96	3
TAP	69	192	1
TAP	69	192	4
TAP	70	0	0
TAP	70	96	1
TAP	70	192	2
TAP	70	192	3
TAP	70	288	2
TAP	70	288	3
TAP	71	0	4
TAP	71	0	5
TAP	71	96	4
TAP	71	96	5
TAP	71	192	6
STR	71	288	7
SCL	71	288	7	96	576	0
TAP	74	0	6
TAP	74	0	7
TAP	74	96	6
TAP	74	96	7
TAP	74	192	0
TAP	74	192	5
TAP	75	0	0
TAP	75	0	1
TAP	75	96	0
TAP	75	96	1
TAP	75	192	2
TAP	75	192	7
XTP	76	0	5
XTP	76	96	4
XTP	76	192	3
XST	76	288	2
SCL	76	288	2	96	384	5
HLD	79	0	3	384
HLD	79	0	4	384
TAP	80	192	4
HLD	81	0	3	384
HLD	81	0	5	384
XTP	82	144	2
XTP	82	144	6
XTP	82	336	1
XTP	82	336	7
XTP	83	48	0
XTP	83	96	0
HLD	83	192	1	96
HLD	83	192	6	96
TAP	84	0	2
TAP	84	0	5
TAP	84	96	2
TAP	84	96	5
TAP	84	192	3
TAP	84	192	4
STR	84	288	3
SXR	84	288	3	96	384	0
STR	84	288	4
SXL	84	288	4	96	384	7
BRK	86	192	1
BRK	86	192	6
TTP	87	0	1	B	0	L1
TTP	87	192	0	C	0	L1
TTP	88	0	5	B	0	L1
TTP	88	192	6	B	0	L1
TTP	88	192	6	E	0	L1
TTP	89	0	0	E	0	L1
TTP	89	192	1	E	0	L1
TTP	89	192	7	E	0	L1
THO	90	0	0	192	C	0	L1
TTP	91	0	6	B	0	L1
TTP	91	0	7	E	0	L1
TTP	91	192	1	E	0	L1
TTP	91	192	1	B	0	L1
TTP	92	0	0	B	0	L1
TTP	92	0	0	E	0	L1
TTP	92	0	7	B	0	L1
TTP	93	0	2	B	0	L1
TTP	93	0	3	E	0	L1
TTP	93	192	5	E	0	L1
TTP	93	192	5	B	0	L1
THO	94	0	0	192	C	0	L1
TAP	95	0	0
TAP	95	0	7
TAP	95	96	1
TAP	95	96	6
TAP	95	192	2
TAP	95	192	5
TAP	95	288	3
TAP	95	288	4
BRK	96	0	1
BRK	96	0	6
TAP	96	144	3
TAP	96	144	4
TAP	96	192	3
TAP	96	192	4

T_REC_TAP	133
T_REC_BRK	7
T_REC_XTP	24
T_REC_HLD	34
T_REC_XHO	1
T_REC_STR	11
T_REC_BST	0
T_REC_XST	1
T_REC_TTP	35
T_REC_THO	6
T_REC_SLD	12
T_REC_ALL	264
T_NUM_TAP	204
T_NUM_BRK	7
T_NUM_HLD	41
T_NUM_SLD	12
T_NUM_ALL	264
T_JUDGE_TAP	211
T_JUDGE_HLD	197
T_JUDGE_SLD	12
T_JUDGE_ALL	420
TTM_EACHPAIRS	53
TTM_SCR_TAP	102000
TTM_SCR_BRK	18200
TTM_SCR_HLD	41000
TTM_SCR_SLD	18000
TTM_SCR_ALL	179200
TTM_SCR_S	173150
TTM_SCR_SS	178500
TTM_RAT_ACV	10039

