VERSION	0.00.00	1.03.00
FES_MODE	0
BPM_DEF	182.000	182.000	182.000	182.000
MET_DEF	4	4
RESOLUTION	384
CLK_DEF	384
COMPATIBLE_CODE	MA2

BPM	0	0	182.000
MET	0	0	4	4

TAP	5	0	0
TAP	6	0	0
STR	7	0	0
SI_	7	0	0	96	288	3
STR	9	0	7
SI_	9	0	7	96	288	4
TAP	12	0	3
TAP	13	0	3
TAP	14	0	2
HLD	14	192	2	384
TAP	16	0	1
HLD	16	192	1	384
TAP	18	0	0
TAP	18	192	0
BRK	19	0	0
BRK	19	0	7
TAP	20	0	7
TAP	20	192	7
TAP	21	0	6
TAP	21	192	6
TAP	22	0	5
HLD	22	192	5	192
TAP	23	192	5
TAP	24	0	4
TAP	24	192	4
XTP	25	0	3
XTP	25	0	4
TAP	26	0	3
TAP	26	192	3
TAP	27	0	4
TAP	27	192	4
STR	28	0	3
SI_	28	0	3	96	288	0
STR	30	0	4
SI_	30	0	4	96	288	7
TAP	32	0	3
TAP	32	192	3
TAP	33	0	4
TAP	33	192	4
TAP	34	0	3
TAP	34	192	4
BRK	35	0	3
BRK	35	0	4
TTP	36	0	3	B	0	L1
TTP	37	0	2	B	0	L1
TTP	38	0	1	B	0	L1
TTP	39	0	0	B	0	L1
TTP	40	0	7	B	0	L1
TTP	41	0	6	B	0	L1
TTP	42	0	5	B	0	L1
TTP	43	0	3	B	0	L1
TTP	43	0	4	B	0	L1
TTP	44	0	5	E	0	L1
TTP	45	0	6	E	0	L1
TTP	46	0	7	E	0	L1
TTP	47	0	0	E	0	L1
TTP	48	0	1	E	0	L1
TTP	49	0	2	E	0	L1
TTP	50	0	3	E	0	L1
TTP	51	0	4	E	0	L1
HLD	52	0	3	384
HLD	52	0	4	384
HLD	54	0	2	384
HLD	54	0	5	384
THO	56	0	0	336	C	1	L1
TAP	58	0	7
TAP	59	0	6
TAP	60	0	5
HLD	60	192	5	384
TAP	62	0	4
TAP	62	0	5
TAP	63	0	2
TAP	63	0	3
TAP	64	0	1
HLD	64	192	1	384
TAP	66	0	0
TAP	66	96	0
TAP	66	192	0
TAP	67	0	1
TAP	67	96	1
TAP	67	192	1
TAP	68	0	2
HLD	68	192	2	192
TAP	69	192	2
TAP	70	0	2
TAP	70	0	3
TAP	70	192	3
TAP	71	0	4
TAP	71	0	5
TAP	71	192	5
TAP	72	0	6
HLD	72	192	6	384
HLD	72	192	7	384
TAP	74	0	0
TAP	74	0	1
TAP	74	192	0
TAP	74	192	1
TAP	75	0	6
TAP	75	0	7
TAP	75	192	6
TAP	75	192	7
TAP	76	0	0
TAP	76	96	0
TAP	76	192	7
TAP	76	288	7
STR	77	0	0
SI_	77	0	0	96	288	4
TTP	81	0	5	B	0	L1
TTP	82	0	2	B	0	L1
TTP	83	0	4	B	0	L1
TTP	84	0	3	B	0	L1
THO	85	0	0	336	C	1	L1
TAP	87	0	7
TAP	88	0	7
TAP	89	0	6
HLD	89	192	6	384
TAP	91	0	5
TAP	91	192	5
TAP	92	0	4
TAP	92	192	4
TAP	93	0	3
TAP	93	192	3
TAP	93	192	4
TAP	94	0	4
TAP	94	96	4
TAP	94	192	3
TAP	94	288	3
HLD	95	0	2	384
HLD	95	0	5	384
XTP	96	192	3
XTP	96	192	4

T_REC_TAP	75
T_REC_BRK	4
T_REC_XTP	4
T_REC_HLD	15
T_REC_XHO	0
T_REC_STR	5
T_REC_BST	0
T_REC_XST	0
T_REC_TTP	21
T_REC_THO	2
T_REC_SLD	5
T_REC_ALL	131
T_NUM_TAP	105
T_NUM_BRK	4
T_NUM_HLD	17
T_NUM_SLD	5
T_NUM_ALL	131
T_JUDGE_TAP	109
T_JUDGE_HLD	126
T_JUDGE_SLD	5
T_JUDGE_ALL	240
TTM_EACHPAIRS	17
TTM_SCR_TAP	52500
TTM_SCR_BRK	10400
TTM_SCR_HLD	17000
TTM_SCR_SLD	7500
TTM_SCR_ALL	87400
TTM_SCR_S	84400
TTM_SCR_SS	87000
TTM_RAT_ACV	10045

