VERSION	0.00.00	1.03.00
FES_MODE	0
BPM_DEF	205.000	205.000	205.000	205.000
MET_DEF	4	4
RESOLUTION	384
CLK_DEF	384
COMPATIBLE_CODE	MA2

BPM	0	0	205.000
MET	0	0	4	4
MET	50	0	4	3
MET	62	0	8	9
MET	71	0	4	4
MET	83	0	4	7
MET	86	192	4	4
MET	87	192	4	3
MET	125	0	8	9

TAP	2	0	4
HLD	2	0	5	96
TAP	2	96	4
TAP	2	192	4
STR	2	192	6
SCL	2	192	6	96	96	4
TAP	2	240	4
TAP	2	336	3
TAP	3	48	2
TAP	3	96	2
TAP	3	192	1
TAP	3	192	3
TAP	3	288	2
HLD	4	0	2	96
TAP	4	0	3
TAP	4	96	3
STR	4	192	1
SCR	4	192	1	96	96	3
TAP	4	192	3
TAP	4	240	3
TAP	4	336	4
TAP	5	48	5
TAP	5	96	5
TAP	5	192	4
TAP	5	192	6
TAP	5	288	6
TAP	6	0	4
HLD	6	0	5	96
TAP	6	96	4
TAP	6	192	4
STR	6	192	6
SCL	6	192	6	96	96	4
TAP	6	240	4
TAP	6	336	3
TAP	7	48	2
TAP	7	96	2
TAP	7	192	1
TAP	7	192	3
TAP	7	288	0
TAP	8	0	1
TAP	8	0	3
TAP	8	96	2
TAP	8	144	2
TAP	8	192	3
TAP	8	192	4
TAP	8	288	5
TAP	8	336	5
TAP	9	0	3
TAP	9	0	6
TAP	9	48	7
TAP	9	96	7
TAP	9	144	1
TAP	9	144	6
TAP	9	192	0
TAP	9	240	0
BRK	9	288	2
BRK	9	288	5
STR	10	0	1
SI_	10	0	1	96	48	3
TAP	10	48	3
TAP	10	96	3
STR	10	192	1
SI_	10	192	1	96	48	4
TAP	10	240	4
TAP	10	288	4
STR	11	0	1
SI_	11	0	1	96	48	5
TAP	11	48	5
TAP	11	96	5
TAP	11	192	6
TAP	11	240	6
TAP	11	288	5
TAP	12	0	4
TAP	12	0	6
STR	12	96	6
SI_	12	96	6	96	48	4
TAP	12	144	4
TAP	12	192	4
STR	12	288	6
SI_	12	288	6	96	48	3
TAP	12	336	3
TAP	13	0	3
STR	13	96	6
SI_	13	96	6	96	48	2
TAP	13	144	2
TAP	13	192	2
TAP	13	288	1
TAP	13	336	1
TAP	14	0	2
TAP	14	96	1
TAP	14	96	3
STR	14	192	0
SI_	14	192	0	96	48	6
TAP	14	240	6
TAP	14	288	6
STR	15	0	0
SI_	15	0	0	96	48	5
TAP	15	48	5
TAP	15	96	5
STR	15	192	0
SI_	15	192	0	96	48	4
TAP	15	240	4
TAP	15	288	4
STR	16	0	5
SCR	16	0	5	96	48	0
STR	16	96	1
SI_	16	96	1	96	48	4
STR	16	192	6
SI_	16	192	6	96	48	3
STR	16	288	2
SCL	16	288	2	96	48	7
TAP	17	0	4
STR	17	96	2
SI_	17	96	2	96	48	5
STR	17	96	6
SI_	17	96	6	96	48	1
BRK	17	288	3
BRK	17	288	7
TTP	18	0	2	B	0	M1
TTP	18	0	3	E	0	M1
TTP	18	48	5	E	0	M1
TTP	18	48	5	B	0	M1
TTP	18	96	1	B	0	M1
TTP	18	96	2	E	0	M1
TTP	18	144	6	B	0	M1
TTP	18	144	6	E	0	M1
HLD	18	192	0	144
TTP	18	336	0	B	0	M1
TTP	18	336	1	E	0	M1
TTP	19	48	3	B	0	M1
TTP	19	48	3	E	0	M1
TAP	19	144	6
TAP	19	192	6
TAP	19	192	7
TAP	19	288	2
TAP	19	288	4
TTP	20	0	6	B	0	M1
TTP	20	0	7	E	0	M1
TTP	20	48	0	B	0	M1
TTP	20	48	1	E	0	M1
TTP	20	96	0	C	0	M1
TTP	20	144	2	B	0	M1
TTP	20	144	3	E	0	M1
TTP	20	192	4	B	0	M1
TTP	20	192	5	E	0	M1
TTP	20	240	0	C	1	M1
TAP	21	0	7
TAP	21	48	0
TAP	21	96	5
TAP	21	144	2
TAP	21	192	6
TAP	21	240	1
TAP	21	288	2
TAP	21	288	4
TAP	22	0	5
TAP	22	32	4
TAP	22	64	6
TAP	22	96	2
TAP	22	128	3
TAP	22	160	1
HLD	22	192	5	144
TAP	22	240	3
TAP	22	288	3
TTP	22	336	4	B	0	M1
TTP	22	336	5	E	0	M1
TTP	23	48	7	B	0	M1
TTP	23	48	7	E	0	M1
HLD	23	144	1	96
TTP	23	240	0	C	0	M1
HLD	23	336	3	192
HLD	23	336	7	192
TAP	24	192	6
TAP	24	224	5
TAP	24	256	4
TAP	24	288	0
TAP	24	320	1
TAP	24	352	2
TTP	25	0	7	E	0	M1
TTP	25	32	6	E	0	M1
TTP	25	64	5	E	0	M1
TTP	25	96	1	E	0	M1
TTP	25	128	2	E	0	M1
TTP	25	160	3	E	0	M1
TAP	25	192	0
TAP	25	224	7
TAP	25	256	6
TAP	25	288	1
TAP	25	320	2
TAP	25	352	3
HLD	26	0	4	144
TAP	26	0	7
TAP	26	144	5
TAP	26	192	4
TAP	26	240	5
TAP	26	288	3
TTP	26	336	7	B	0	M1
TTP	26	336	7	E	0	M1
TTP	27	48	4	B	0	M1
TTP	27	48	5	E	0	M1
TAP	27	144	1
TAP	27	192	0
TAP	27	192	1
TAP	27	288	1
TAP	27	288	3
TAP	28	0	3
TAP	28	0	6
TAP	28	48	5
TAP	28	96	0
TAP	28	144	2
TAP	28	192	1
TAP	28	192	4
TAP	28	240	3
TAP	28	288	7
TAP	28	336	5
STR	29	0	1
SI_	29	0	1	96	48	4
TAP	29	48	1
STR	29	96	7
SI_	29	96	7	96	48	3
TAP	29	144	7
STR	29	192	0
SF_	29	192	0	96	48	4
BRK	29	288	0
STR	30	0	1
SI_	30	0	1	96	72	3
STR	30	72	3
SI_	30	72	3	96	72	5
TAP	30	144	6
TAP	30	192	6
STR	30	288	6
SI_	30	288	6	96	72	4
STR	30	360	4
SI_	30	360	4	96	72	2
TAP	31	48	1
TAP	31	96	1
STR	31	192	0
SI_	31	192	0	96	72	2
STR	31	264	2
SI_	31	264	2	96	72	4
TAP	31	336	5
STR	32	0	5
SXR	32	0	5	96	240	0
TAP	32	96	3
TAP	32	192	2
TAP	32	288	1
STR	33	0	1
SI_	33	0	1	96	72	3
STR	33	72	3
SI_	33	72	3	96	72	7
TAP	33	144	6
TAP	33	192	6
STR	33	288	6
SI_	33	288	6	96	72	4
STR	33	360	4
SI_	33	360	4	96	72	0
TAP	34	48	1
TAP	34	96	1
STR	34	192	2
SI_	34	192	2	96	72	0
STR	34	264	0
SI_	34	264	0	96	72	4
TAP	34	336	7
TAP	35	0	7
TAP	35	96	6
TAP	35	128	4
TAP	35	160	5
TAP	35	192	1
TAP	35	224	3
TAP	35	256	2
TAP	35	288	5
STR	36	0	6
SCL	36	0	6	96	72	4
STR	36	72	4
SCL	36	72	4	96	72	2
TAP	36	144	1
TAP	36	192	1
STR	36	288	1
SCR	36	288	1	96	72	3
STR	36	360	3
SCR	36	360	3	96	72	5
TAP	37	48	6
TAP	37	96	6
STR	37	192	7
SCL	37	192	7	96	72	5
STR	37	264	5
SCL	37	264	5	96	72	3
TAP	37	336	2
STR	38	0	2
SXL	38	0	2	96	240	7
TAP	38	96	4
TAP	38	192	5
TAP	38	288	6
STR	39	0	6
SCL	39	0	6	96	72	4
STR	39	72	4
SI_	39	72	4	96	72	0
TAP	39	144	1
TAP	39	192	1
STR	39	288	1
SCR	39	288	1	96	72	3
STR	39	360	3
SI_	39	360	3	96	72	7
TAP	40	48	6
TAP	40	96	6
HLD	40	192	6	72
HLD	40	264	3	72
TAP	40	336	4
TAP	41	0	1
TAP	41	0	5
TAP	41	96	2
TAP	41	120	3
TAP	41	144	2
TAP	41	168	3
TAP	41	192	1
TAP	41	216	3
TAP	41	240	1
TAP	41	264	3
STR	41	288	0
SI_	41	288	0	96	48	5
BRK	42	0	0
BRK	42	0	5
TAP	42	96	4
TAP	42	192	4
TAP	42	288	4
TAP	43	0	4
TAP	43	96	4
TAP	43	192	4
HLD	43	240	2	144
TAP	43	288	4
TAP	44	0	4
HLD	44	96	1	288
TAP	44	96	4
TAP	44	192	4
TAP	44	288	4
TAP	45	0	4
TAP	45	96	4
TAP	45	144	1
TAP	45	168	2
HLD	45	192	3	96
TAP	45	192	4
TAP	45	288	4
TAP	46	0	3
BST	46	0	5
SXL	46	0	5	96	576	0
TAP	46	96	3
TAP	46	192	3
TAP	46	288	3
TAP	47	0	2
TAP	47	96	2
TAP	47	192	1
TAP	47	288	1
TAP	48	0	1
TAP	48	24	3
TAP	48	48	2
TAP	48	72	3
TAP	48	144	6
TAP	48	168	4
TAP	48	192	5
TAP	48	216	4
TAP	48	288	0
HLD	48	288	7	72
TAP	48	360	0
TAP	49	0	1
TAP	49	32	2
TAP	49	64	3
TAP	49	96	0
TAP	49	128	1
TAP	49	160	2
BRK	49	192	7
TAP	49	208	0
TAP	49	224	1
TAP	49	240	2
TAP	49	256	3
TAP	49	272	4
STR	49	288	5
SV_	49	288	5	96	48	0
TAP	49	304	6
TAP	49	320	7
TAP	49	336	0
TAP	49	352	1
TAP	49	368	2
BRK	50	0	3
BRK	50	0	5
TAP	50	144	6
TAP	50	168	7
TAP	50	192	6
TAP	50	240	0
TAP	50	240	5
HLD	50	288	2	72
TAP	50	288	4
TAP	50	360	3
TAP	51	0	2
TAP	51	48	0
TAP	51	48	1
HLD	51	96	2	96
TAP	51	96	7
STR	51	192	6
SI_	51	192	6	96	48	3
TAP	51	240	7
TAP	51	288	6
STR	51	336	1
SI_	51	336	1	96	48	3
TAP	52	0	0
TAP	52	48	1
TAP	52	96	6
TAP	52	128	4
TAP	52	160	5
TAP	52	192	1
TAP	52	224	3
TAP	52	256	2
STR	52	288	7
SXL	52	288	7	96	144	3
TAP	52	320	0
TAP	52	352	5
TAP	53	0	7
TAP	53	144	6
TAP	53	192	6
TAP	53	240	2
TAP	53	240	7
TAP	53	288	3
HLD	53	288	5	72
TAP	53	360	4
TAP	54	0	5
TAP	54	48	6
TAP	54	48	7
TAP	54	96	0
TAP	54	96	5
TAP	54	144	1
TAP	54	144	4
TAP	54	192	2
TAP	54	216	3
TAP	54	240	2
TAP	54	264	3
TAP	54	288	1
TAP	54	312	4
TAP	54	336	1
TAP	54	360	4
TAP	55	0	0
TAP	55	24	5
TAP	55	48	0
TAP	55	72	5
TAP	55	96	1
TAP	55	120	0
TAP	55	144	1
TAP	55	168	0
TAP	55	192	2
TAP	55	216	7
TAP	55	240	2
TAP	55	264	7
TAP	55	288	3
TAP	55	312	6
TAP	55	336	3
TAP	55	360	6
STR	56	0	3
SCR	56	0	3	96	144	1
HLD	56	144	7	96
HLD	56	288	7	72
HLD	56	360	1	72
TAP	57	48	3
STR	57	96	2
SI_	57	96	2	96	48	6
TAP	57	96	3
STR	57	192	4
SCL	57	192	4	96	144	6
TAP	57	288	0
HLD	57	336	0	96
HLD	58	96	0	72
HLD	58	168	6	72
TAP	58	240	4
TAP	58	288	4
STR	58	288	5
SCR	58	288	5	96	48	0
BRK	59	0	1
TAP	59	24	2
TAP	59	48	3
TAP	59	72	4
TAP	59	96	5
TAP	59	120	6
TAP	59	144	7
TAP	59	168	0
BRK	59	192	6
TAP	59	216	5
TAP	59	240	4
TAP	59	264	3
BRK	59	288	1
TAP	59	312	0
TAP	59	336	7
TAP	59	360	6
TAP	60	0	5
TAP	60	24	4
TAP	60	48	3
TAP	60	72	2
BRK	60	96	7
TAP	60	120	6
TAP	60	144	5
TAP	60	168	4
HLD	60	192	0	192
BRK	60	192	3
TAP	60	288	4
TAP	60	336	4
TAP	61	0	5
TAP	61	48	5
TAP	61	96	4
TAP	61	96	6
TAP	61	192	0
TAP	61	216	7
TAP	61	240	2
TAP	61	264	5
TAP	61	288	1
TAP	61	312	6
TAP	61	336	3
TAP	61	360	4
BRK	62	0	1
BRK	62	0	6
TAP	62	240	1
TAP	62	288	1
TAP	62	336	3
TAP	63	0	2
HLD	63	48	1	192
HLD	63	48	3	192
TAP	63	288	1
TAP	63	336	1
TAP	64	0	3
TAP	64	48	2
HLD	64	96	1	192
HLD	64	96	3	192
TAP	64	336	1
TAP	65	0	1
TAP	65	48	3
TAP	65	96	2
HLD	65	144	1	192
HLD	65	144	3	192
TAP	66	0	2
TAP	66	0	4
TAP	66	48	4
TAP	66	96	3
TAP	66	96	5
TAP	66	144	3
TAP	66	192	4
HLD	66	192	6	192
TAP	66	288	4
TAP	67	0	4
TAP	67	48	6
TAP	67	96	6
TAP	67	144	4
TAP	67	192	5
TAP	67	240	4
HLD	67	240	6	192
TAP	67	336	4
TAP	68	48	4
TAP	68	96	6
TAP	68	144	6
TAP	68	192	4
TAP	68	240	5
TAP	68	288	4
HLD	68	288	6	192
TAP	69	0	4
TAP	69	96	4
TAP	69	144	3
TAP	69	144	4
BRK	69	240	1
BRK	69	240	6
TAP	69	336	0
TAP	69	360	1
TAP	70	0	2
TAP	70	24	3
TAP	70	24	4
TAP	70	48	5
TAP	70	72	6
TAP	70	96	0
TAP	70	120	1
TAP	70	144	2
TAP	70	168	3
TAP	70	168	4
TAP	70	192	5
TAP	70	216	6
TAP	70	240	0
TAP	70	264	1
TAP	70	288	2
TAP	70	312	3
TAP	70	312	4
TAP	70	336	5
TAP	70	360	6
BST	71	0	0
SI_	71	0	0	96	48	4
BRK	71	0	7
TAP	71	96	0
STR	71	144	6
SI_	71	144	6	96	48	3
TAP	71	240	6
TAP	71	288	7
TAP	71	336	0
STR	72	0	1
SCR	72	0	1	96	48	4
TAP	72	48	0
TAP	72	96	1
STR	72	144	7
SI_	72	144	7	96	48	3
TAP	72	240	7
STR	72	288	1
SI_	72	288	1	96	48	4
TAP	73	0	1
STR	73	0	5
SCR	73	0	5	96	96	3
HLD	73	96	1	96
TAP	73	96	5
TAP	73	240	0
STR	73	288	0
SI_	73	288	0	96	48	3
TAP	74	0	0
TAP	74	0	7
TAP	74	96	7
TAP	74	120	6
TAP	74	144	5
TAP	74	168	4
TAP	74	192	0
TAP	74	216	1
TAP	74	240	2
TAP	74	264	3
TAP	74	288	0
TAP	74	312	7
TAP	74	336	6
TAP	74	360	5
TAP	75	0	0
TAP	75	0	4
STR	75	96	5
SI_	75	96	5	96	48	0
TAP	75	144	4
TAP	75	192	5
STR	75	240	2
SCL	75	240	2	96	96	4
TAP	75	336	2
HLD	75	336	7	96
TAP	76	96	6
STR	76	144	6
SI_	76	144	6	96	48	1
SI_	76	144	6	96	48	3
TAP	76	240	6
STR	76	336	0
SLR	76	336	0	96	96	5
STR	76	336	4
SLR	76	336	4	96	96	1
TAP	77	192	3
TAP	77	192	7
STR	77	240	2
SI_	77	240	2	96	48	7
STR	77	240	6
SI_	77	240	6	96	48	3
BRK	77	336	2
BRK	77	336	6
TAP	78	48	0
TAP	78	96	0
TAP	78	144	5
TAP	78	168	4
TAP	78	192	5
TAP	78	240	6
TAP	78	288	3
TAP	78	288	7
TAP	79	0	5
HLD	79	48	5	96
TAP	79	96	7
HLD	79	144	7	96
TAP	79	192	0
HLD	79	240	0	96
TAP	79	288	2
TAP	79	336	2
TAP	80	0	6
TAP	80	32	4
TAP	80	64	5
TAP	80	96	1
TAP	80	128	3
TAP	80	160	2
TAP	80	192	7
TAP	80	224	5
TAP	80	256	6
TAP	80	288	0
TAP	80	320	2
TAP	80	352	1
TAP	81	0	7
HLD	81	48	7	96
TAP	81	96	5
HLD	81	144	5	96
TAP	81	192	3
HLD	81	240	3	96
TAP	81	288	0
HLD	81	336	0	80
TAP	82	32	7
TAP	82	64	7
TAP	82	96	1
TAP	82	128	3
TAP	82	160	2
TAP	82	192	6
TAP	82	224	4
TAP	82	256	5
TAP	82	288	0
TAP	82	288	4
TAP	83	0	2
TAP	83	0	4
TAP	83	48	2
TAP	83	96	2
TAP	83	144	4
TAP	83	144	6
TAP	83	192	6
TAP	83	240	6
TAP	83	288	1
TAP	83	288	3
TAP	83	336	1
TAP	84	0	1
TAP	84	48	0
TAP	84	48	7
TAP	84	96	7
TAP	84	144	7
TAP	84	192	0
STR	84	192	1
SI_	84	192	1	96	48	4
TAP	84	240	1
BST	84	288	7
SI_	84	288	7	96	48	3
TAP	84	336	7
BST	85	0	0
SI_	85	0	0	96	48	4
TAP	85	48	0
BST	85	96	6
SI_	85	96	6	96	48	3
TAP	85	144	6
BRK	85	192	1
TAP	85	240	1
BST	85	288	0
SI_	85	288	0	96	48	4
BST	85	288	7
SI_	85	288	7	96	48	3
BST	86	0	0
SCR	86	0	0	96	48	3
BST	86	0	7
SCL	86	0	7	96	48	4
BRK	86	96	0
BRK	86	96	7
TAP	86	192	7
TAP	86	208	6
TAP	86	224	5
HLD	86	256	0	64
TAP	86	288	6
TAP	86	304	5
TAP	86	320	4
HLD	86	352	0	64
TAP	87	0	5
TAP	87	16	4
TAP	87	32	3
HLD	87	64	0	64
TAP	87	96	4
TAP	87	112	3
TAP	87	128	2
TAP	87	160	0
BST	87	192	0
SUR	87	192	0	96	1056	2
BST	87	192	2
SCR	87	192	2	96	1056	1
TAP	92	0	3
HLD	92	48	2	96
TAP	92	48	4
TAP	92	144	5
TAP	92	192	4
HLD	92	192	6	96
TAP	92	288	2
TAP	92	320	3
TAP	92	352	1
TAP	93	0	5
TAP	93	32	4
TAP	93	64	6
TAP	93	96	2
STR	93	192	6
SI_	93	192	6	96	72	4
STR	93	264	4
SI_	93	264	4	96	72	2
TAP	93	336	1
HLD	94	0	1	96
STR	94	96	6
SI_	94	96	6	96	72	4
STR	94	168	4
SI_	94	168	4	96	72	2
TAP	94	240	1
TAP	94	288	1
STR	95	0	1
SI_	95	0	1	96	72	3
STR	95	72	3
SI_	95	72	3	96	72	5
TAP	95	144	6
STR	95	192	6
SXR	95	192	6	96	240	0
TAP	95	288	3
TAP	96	0	2
TAP	96	96	1
STR	96	192	1
SI_	96	192	1	96	72	3
STR	96	264	3
SI_	96	264	3	96	72	5
TAP	96	336	6
HLD	97	0	6	96
STR	97	96	2
SI_	97	96	2	96	72	0
STR	97	168	0
SI_	97	168	0	96	72	6
TAP	97	240	5
TAP	97	288	5
TAP	98	0	2
TAP	98	32	3
TAP	98	64	2
TAP	98	96	5
TAP	98	128	4
TAP	98	160	5
TAP	98	192	1
TAP	98	224	3
TAP	98	256	2
TAP	98	288	4
TAP	98	288	6
TAP	98	352	0
TAP	99	0	7
TAP	99	32	1
TAP	99	64	0
TAP	99	96	2
TAP	99	96	7
BRK	99	192	0
BRK	99	192	4
BRK	99	240	0
BRK	99	240	4
BRK	99	336	2
BRK	99	336	6
BRK	100	0	2
BRK	100	0	6
TAP	100	96	1
TAP	100	108	2
TAP	100	120	3
TAP	100	132	4
TAP	100	144	5
TAP	100	156	6
TAP	100	168	7
TAP	100	180	0
TAP	100	192	1
TAP	100	204	2
TAP	100	216	3
TAP	100	228	4
TAP	100	240	5
TAP	100	252	6
TAP	100	264	7
TAP	100	276	0
BRK	100	288	1
BRK	100	288	5
TAP	101	0	1
TAP	101	0	7
TAP	101	96	5
STR	101	96	7
SCL	101	96	7	96	48	4
TAP	101	192	1
STR	101	192	7
SCR	101	192	7	96	48	2
TAP	101	288	5
STR	101	288	7
SI_	101	288	7	96	48	4
TAP	102	0	1
STR	102	0	7
SI_	102	0	7	96	48	2
TAP	102	96	5
STR	102	96	7
SCL	102	96	7	96	96	1
TAP	102	192	1
TAP	102	192	7
TAP	102	288	0
STR	102	336	0
SI_	102	336	0	96	48	4
TAP	103	48	0
STR	103	96	7
SCL	103	96	7	96	48	4
TAP	103	192	3
TAP	103	216	2
TAP	103	240	1
TAP	103	264	0
TAP	103	288	7
TAP	103	312	6
TAP	103	336	5
TAP	103	360	4
TAP	104	0	3
TAP	104	0	7
TAP	104	96	1
STR	104	96	3
SCL	104	96	3	96	48	0
STR	104	192	3
SCR	104	192	3	96	48	6
TAP	104	192	5
TAP	104	288	1
STR	104	288	3
SI_	104	288	3	96	48	0
STR	105	0	3
SI_	105	0	3	96	48	6
TAP	105	0	5
TAP	105	96	1
STR	105	96	3
SCL	105	96	3	96	96	5
TAP	105	192	3
TAP	105	192	5
TAP	105	288	4
STR	105	336	4
SI_	105	336	4	96	48	0
TAP	106	48	4
STR	106	96	1
SXR	106	96	1	96	192	4
TAP	106	192	1
HLD	106	192	5	96
TAP	107	0	7
TAP	107	48	7
TAP	107	96	0
TAP	107	96	6
TAP	107	144	0
TAP	107	192	1
TAP	107	192	5
TAP	107	240	1
TAP	107	288	5
TAP	107	320	3
TAP	107	352	5
TAP	108	0	1
TAP	108	32	3
TAP	108	64	1
TAP	108	96	0
TAP	108	96	6
TAP	108	192	0
TAP	108	240	0
TAP	108	288	1
TAP	108	288	7
TAP	108	336	7
TAP	109	0	2
TAP	109	0	6
TAP	109	48	6
TAP	109	96	2
TAP	109	128	4
TAP	109	160	2
TAP	109	192	6
TAP	109	224	4
TAP	109	256	6
TAP	109	288	1
TAP	109	288	7
TAP	110	0	0
BRK	110	0	5
TAP	110	32	1
TAP	110	64	2
TAP	110	96	3
BRK	110	96	6
TAP	110	128	2
TAP	110	160	1
TAP	110	192	0
BRK	110	192	5
TAP	110	224	1
TAP	110	256	2
TAP	110	288	3
BRK	110	288	6
TAP	110	320	5
TAP	110	352	4
BRK	111	0	0
TAP	111	0	3
TAP	111	32	4
TAP	111	64	5
BST	111	96	1
SCR	111	96	1	96	144	0
TAP	111	96	6
TAP	111	128	5
TAP	111	160	4
BRK	111	192	1
HLD	111	192	3	96
STR	112	0	6
SCL	112	0	6	96	144	0
HLD	112	96	2	96
BRK	112	96	6
STR	112	288	2
SV_	112	288	2	96	48	7
STR	112	288	6
SI_	112	288	6	96	48	3
BRK	113	0	2
BRK	113	0	6
TAP	113	144	1
TAP	113	168	0
TAP	113	192	1
TAP	113	240	2
TAP	113	240	7
TAP	113	288	3
HLD	113	288	5	72
TAP	113	360	4
TAP	114	0	5
TAP	114	48	6
TAP	114	48	7
TAP	114	96	0
HLD	114	96	5	96
STR	114	192	1
SI_	114	192	1	96	48	4
TAP	114	240	0
TAP	114	288	1
STR	114	336	6
SI_	114	336	6	96	48	0
TAP	115	0	7
TAP	115	48	6
TAP	115	96	1
TAP	115	128	3
TAP	115	160	2
TAP	115	192	6
TAP	115	224	4
TAP	115	256	5
STR	115	288	0
SXR	115	288	0	96	144	4
TAP	115	320	7
TAP	115	352	2
TAP	116	0	0
TAP	116	144	1
TAP	116	192	1
TAP	116	240	0
TAP	116	240	5
HLD	116	288	2	72
TAP	116	288	4
TAP	116	360	3
TAP	117	0	2
TAP	117	48	0
TAP	117	48	1
TAP	117	96	2
TAP	117	96	7
TAP	117	144	3
TAP	117	144	6
TAP	117	192	5
TAP	117	216	4
TAP	117	240	5
TAP	117	264	4
TAP	117	288	6
TAP	117	312	3
TAP	117	336	6
TAP	117	360	3
TAP	118	0	7
TAP	118	24	2
TAP	118	48	7
TAP	118	72	2
TAP	118	96	6
TAP	118	120	7
TAP	118	144	6
TAP	118	168	7
TAP	118	192	5
TAP	118	216	0
TAP	118	240	5
TAP	118	264	0
TAP	118	288	4
TAP	118	312	1
TAP	118	336	4
TAP	118	360	1
STR	119	0	4
SCL	119	0	4	96	144	6
TAP	119	96	1
HLD	119	144	0	48
TAP	119	240	1
HLD	119	288	1	72
HLD	119	360	6	72
TAP	120	48	4
TAP	120	96	4
STR	120	96	5
SI_	120	96	5	96	48	1
STR	120	192	3
SCR	120	192	3	96	144	1
TAP	120	240	3
TAP	120	288	7
HLD	120	336	7	48
TAP	121	48	6
HLD	121	96	6	72
HLD	121	168	1	72
TAP	121	240	3
STR	121	288	2
SCL	121	288	2	96	48	7
TAP	121	288	3
BRK	122	0	6
TAP	122	24	5
TAP	122	48	4
TAP	122	72	3
TAP	122	96	2
TAP	122	120	1
TAP	122	144	0
TAP	122	168	7
BRK	122	192	1
BRK	122	192	6
TAP	122	216	2
TAP	122	240	3
TAP	122	264	4
BRK	122	288	6
TAP	122	312	7
TAP	122	336	0
TAP	122	360	1
TAP	123	0	2
TAP	123	24	3
TAP	123	48	4
TAP	123	72	5
BRK	123	96	0
BRK	123	96	6
TAP	123	120	1
TAP	123	144	2
TAP	123	168	3
BRK	123	192	4
HLD	123	192	7	192
TAP	123	288	3
TAP	123	336	3
TAP	124	0	2
TAP	124	48	2
TAP	124	96	1
TAP	124	96	7
TAP	124	120	6
TAP	124	144	5
TAP	124	168	4
BRK	124	192	1
TAP	124	204	2
TAP	124	216	3
TAP	124	228	4
TAP	124	240	5
TAP	124	252	6
TAP	124	264	7
TAP	124	276	0
BRK	124	288	1
BRK	124	288	5
TAP	125	0	4
TAP	125	0	6
TAP	125	48	5
TAP	125	96	5
TAP	125	144	5
TAP	125	192	5
TAP	125	240	1
TAP	125	240	3
TAP	125	288	2
TAP	125	336	2
TAP	126	0	2
TAP	126	48	1
TAP	126	48	7
TAP	126	96	0
TAP	126	144	0
TAP	126	192	0
TAP	126	240	0
TAP	126	288	6
TAP	126	288	7
TAP	126	300	5
TAP	126	312	4
TAP	126	324	3
TAP	127	0	0
TAP	127	0	1
TAP	127	12	2
TAP	127	24	3
TAP	127	36	4
TAP	127	96	5
TAP	127	96	7
TAP	127	144	6
TAP	127	192	6
TAP	127	240	6
TAP	127	288	6
TAP	127	336	1
TAP	127	336	3
TAP	128	0	2
TAP	128	48	2
TAP	128	96	2
TAP	128	144	0
TAP	128	144	6
TAP	128	192	7
TAP	128	240	7
TAP	128	288	7
TAP	128	336	7
BRK	129	0	0
BRK	129	0	1
TAP	129	12	2
TAP	129	24	3
TAP	129	36	4
BRK	129	96	6
BRK	129	96	7
TAP	129	108	0
TAP	129	108	5
TAP	129	120	1
TAP	129	120	4
TAP	129	132	2
TAP	129	132	3

T_REC_TAP	784
T_REC_BRK	58
T_REC_XTP	0
T_REC_HLD	63
T_REC_XHO	0
T_REC_STR	103
T_REC_BST	12
T_REC_XST	0
T_REC_TTP	37
T_REC_THO	0
T_REC_SLD	116
T_REC_ALL	1173
T_NUM_TAP	924
T_NUM_BRK	70
T_NUM_HLD	63
T_NUM_SLD	116
T_NUM_ALL	1173
T_JUDGE_TAP	994
T_JUDGE_HLD	158
T_JUDGE_SLD	116
T_JUDGE_ALL	1268
TTM_EACHPAIRS	151
TTM_SCR_TAP	462000
TTM_SCR_BRK	182000
TTM_SCR_HLD	63000
TTM_SCR_SLD	174000
TTM_SCR_ALL	881000
TTM_SCR_S	847800
TTM_SCR_SS	874000
TTM_RAT_ACV	10080

