VERSION	0.00.00	1.03.00
FES_MODE	0
BPM_DEF	205.000	205.000	205.000	205.000
MET_DEF	4	4
RESOLUTION	384
CLK_DEF	384
COMPATIBLE_CODE	MA2

BPM	0	0	205.000
MET	0	0	4	4
MET	50	0	4	3
MET	62	0	8	9
MET	71	0	4	4
MET	83	0	4	7
MET	86	192	4	4
MET	87	192	4	3
MET	125	0	8	9

HLD	2	0	5	864
TAP	2	96	4
TAP	2	192	4
TAP	2	288	3
TAP	3	0	3
TAP	3	96	4
TAP	3	192	4
TAP	3	288	3
TAP	4	0	4
HLD	4	96	2	864
TAP	4	192	3
TAP	4	288	3
TAP	5	0	4
TAP	5	96	4
TAP	5	192	3
TAP	5	288	3
TAP	6	0	4
TAP	6	96	3
HLD	6	192	6	864
TAP	6	288	4
TAP	7	0	4
TAP	7	96	3
TAP	7	192	3
TAP	7	288	5
TAP	8	0	5
TAP	8	96	3
TAP	8	192	4
HLD	8	288	1	288
TAP	9	0	3
TAP	9	96	3
TAP	9	192	4
TAP	9	288	3
TAP	9	288	5
TAP	10	0	7
TAP	10	48	7
TAP	10	96	4
TAP	10	144	4
TAP	10	192	5
TAP	10	240	5
TAP	10	288	3
TAP	10	336	3
STR	11	0	7
SI_	11	0	7	96	48	4
STR	11	96	0
SI_	11	96	0	96	48	3
TAP	11	192	7
TAP	11	240	7
TAP	11	288	4
TAP	11	288	6
TAP	12	0	2
TAP	12	0	4
TAP	12	96	0
TAP	12	144	0
TAP	12	192	3
TAP	12	240	3
TAP	12	288	2
TAP	12	336	2
TAP	13	0	4
TAP	13	48	4
STR	13	96	0
SI_	13	96	0	96	48	3
STR	13	192	7
SI_	13	192	7	96	48	4
TAP	13	288	0
TAP	13	336	0
TAP	14	0	1
TAP	14	0	3
TAP	14	96	3
TAP	14	96	5
TAP	14	192	7
TAP	14	240	7
TAP	14	288	4
TAP	14	336	4
TAP	15	0	5
TAP	15	48	5
TAP	15	96	3
TAP	15	144	3
STR	15	192	7
SI_	15	192	7	96	48	4
STR	15	288	0
SI_	15	288	0	96	48	3
TAP	16	0	7
TAP	16	48	7
TAP	16	96	4
TAP	16	96	6
TAP	16	192	2
TAP	16	192	4
TAP	16	288	0
TAP	16	336	0
TAP	17	0	3
TAP	17	48	3
TAP	17	96	2
TAP	17	144	2
TAP	17	192	4
TAP	17	240	4
TAP	17	288	3
TAP	17	288	4
HLD	18	0	1	96
HLD	18	96	3	96
HLD	18	192	4	96
TAP	18	288	6
STR	18	336	6
SI_	18	336	6	96	96	2
TAP	19	144	0
TAP	19	192	0
TAP	19	288	2
TAP	19	288	3
TAP	20	0	5
TAP	20	48	5
TAP	20	96	3
TAP	20	144	3
STR	20	192	4
SCR	20	192	4	96	96	7
STR	21	0	0
SCR	21	0	0	96	96	3
TAP	21	192	4
TAP	21	288	5
HLD	22	0	6	96
HLD	22	96	4	96
HLD	22	192	3	96
TAP	22	288	1
STR	22	336	1
SI_	22	336	1	96	96	5
TAP	23	144	7
TAP	23	192	7
STR	23	240	0
SLR	23	240	0	96	144	4
STR	23	240	7
SV_	23	240	7	96	144	5
HLD	24	192	6	96
HLD	24	288	4	96
HLD	25	0	3	96
HLD	25	96	1	96
HLD	25	192	0	96
TAP	25	288	7
BRK	26	0	1
BRK	26	0	6
TAP	26	144	5
HLD	26	192	5	96
TAP	26	288	4
TAP	26	336	4
TAP	27	48	2
TAP	27	48	6
TAP	27	144	0
HLD	27	192	0	192
TAP	27	288	3
HLD	28	0	7	192
TAP	28	96	4
HLD	28	192	0	192
TAP	28	288	2
HLD	29	0	7	192
TAP	29	96	5
BRK	29	192	0
HLD	30	0	1	72
HLD	30	72	2	72
TAP	30	144	3
TAP	30	192	3
TAP	30	288	0
TAP	30	288	1
TAP	31	0	6
TAP	31	0	7
TAP	31	96	4
TAP	31	96	5
HLD	31	192	6	72
HLD	31	264	5	72
TAP	31	336	4
TAP	32	0	4
TAP	32	96	6
TAP	32	96	7
TAP	32	192	3
TAP	32	192	4
TAP	32	288	2
TAP	32	288	5
HLD	33	0	6	72
HLD	33	72	5	72
TAP	33	144	4
TAP	33	192	4
TAP	33	288	6
TAP	33	288	7
TAP	34	0	0
TAP	34	0	1
TAP	34	96	2
TAP	34	96	3
HLD	34	192	1	72
HLD	34	264	2	72
TAP	34	336	3
TAP	35	0	3
TAP	35	96	0
TAP	35	96	1
TAP	35	192	3
TAP	35	192	4
TAP	35	288	2
TAP	35	288	5
HLD	36	0	1	72
HLD	36	72	2	72
TAP	36	144	3
TAP	36	192	3
TAP	36	288	1
TAP	36	288	7
TAP	37	0	0
TAP	37	0	6
TAP	37	96	3
TAP	37	96	5
HLD	37	192	6	72
HLD	37	264	5	72
TAP	37	336	4
TAP	38	0	4
TAP	38	96	0
TAP	38	96	6
TAP	38	192	3
TAP	38	192	4
TAP	38	288	1
TAP	38	288	5
HLD	39	0	6	72
HLD	39	72	5	72
TAP	39	144	4
TAP	39	192	4
TAP	39	288	0
TAP	39	288	6
TAP	40	0	1
TAP	40	0	7
TAP	40	96	2
TAP	40	96	4
HLD	40	192	1	72
HLD	40	264	2	72
TAP	40	336	3
TAP	41	0	3
TAP	41	96	1
TAP	41	96	7
TAP	41	192	2
TAP	41	192	5
TAP	41	288	0
TAP	41	288	7
TAP	41	336	0
TAP	41	336	7
BRK	42	0	1
BRK	42	0	6
TAP	42	96	5
TAP	42	192	4
TAP	42	288	3
TAP	43	0	2
TAP	43	96	2
TAP	43	192	3
TAP	43	240	3
TAP	43	288	4
TAP	44	0	5
TAP	44	96	5
TAP	44	192	4
TAP	44	288	3
TAP	45	0	2
TAP	45	96	1
TAP	45	144	1
TAP	45	192	3
TAP	45	288	4
TAP	46	0	5
TAP	46	96	5
TAP	46	192	4
TAP	46	288	3
TAP	47	0	2
TAP	47	96	3
TAP	47	192	4
TAP	47	288	5
TAP	48	0	2
TAP	48	0	4
TAP	48	48	2
TAP	48	48	4
TAP	48	144	3
TAP	48	144	5
TAP	48	192	3
TAP	48	192	5
TAP	48	288	2
STR	48	288	4
SCR	48	288	4	96	240	3
HLD	50	0	0	144
BRK	50	0	7
TAP	50	144	3
STR	50	192	3
SI_	50	192	3	96	96	7
TAP	50	288	1
STR	51	0	0
SCR	51	0	0	96	96	3
TAP	51	96	4
TAP	51	192	5
TAP	51	288	4
TAP	51	288	6
TAP	52	0	7
TAP	52	96	0
TAP	52	144	0
TAP	52	192	3
TAP	52	240	3
TAP	52	288	2
TAP	52	336	2
HLD	53	0	5	144
TAP	53	144	4
TAP	53	192	4
TAP	53	288	3
TAP	53	288	6
TAP	54	0	2
TAP	54	0	5
TAP	54	96	1
TAP	54	96	4
TAP	54	192	0
TAP	54	240	0
TAP	54	288	7
TAP	54	336	1
TAP	55	0	4
TAP	55	48	4
TAP	55	96	3
TAP	55	144	5
TAP	55	192	0
TAP	55	240	0
TAP	55	288	7
TAP	56	0	3
TAP	56	0	6
STR	56	96	5
SI_	56	96	5	96	96	0
HLD	56	288	1	96
HLD	57	0	2	96
TAP	57	96	3
TAP	57	192	1
TAP	57	192	4
STR	57	288	2
SI_	57	288	2	96	96	7
HLD	58	96	6	96
HLD	58	192	5	96
TAP	58	288	4
TAP	59	0	6
TAP	59	0	7
TAP	59	96	0
TAP	59	96	1
TAP	59	192	2
TAP	59	192	3
TAP	59	288	4
TAP	59	288	5
TAP	60	0	6
TAP	60	0	7
TAP	60	96	0
TAP	60	96	1
TAP	60	192	2
STR	60	192	3
SCR	60	192	3	96	288	2
HLD	62	0	2	192
HLD	62	0	4	192
TAP	62	240	2
TAP	62	240	4
HLD	63	48	2	192
HLD	63	48	4	192
TAP	63	288	2
TAP	63	288	4
TAP	64	0	3
TAP	64	0	5
HLD	64	96	3	192
HLD	64	96	5	192
TAP	64	336	3
TAP	64	336	5
HLD	65	144	3	192
HLD	65	144	5	192
TAP	66	0	3
TAP	66	0	5
TAP	66	96	2
TAP	66	96	4
TAP	66	192	2
TAP	66	288	3
TAP	67	0	4
TAP	67	48	4
TAP	67	144	3
TAP	67	144	5
TAP	67	240	5
TAP	67	336	4
TAP	68	48	3
TAP	68	96	3
TAP	68	192	2
TAP	68	192	4
TAP	68	288	2
TAP	69	0	3
TAP	69	96	4
TAP	69	144	4
TAP	69	240	3
TAP	69	240	5
THO	69	336	0	240	C	1	M1
XTP	71	0	0
XTP	71	96	1
XTP	71	96	7
XTP	71	144	1
XTP	71	144	7
XTP	71	240	0
XTP	71	240	6
XTP	71	288	0
XTP	71	288	6
STR	72	0	7
SI_	72	0	7	96	48	3
STR	72	96	0
SI_	72	96	0	96	48	2
STR	72	192	6
SI_	72	192	6	96	48	4
TAP	72	288	0
TAP	73	0	2
TAP	73	96	3
HLD	73	96	5	96
TAP	73	192	4
STR	73	240	4
SCL	73	240	4	96	96	0
TAP	74	48	7
STR	74	96	7
SI_	74	96	7	96	48	3
STR	74	192	0
SI_	74	192	0	96	48	4
TAP	74	288	6
TAP	75	0	6
TAP	75	48	5
TAP	75	96	4
TAP	75	144	3
HLD	75	192	2	72
HLD	75	264	1	72
TAP	75	336	0
TAP	76	48	7
STR	76	96	7
SI_	76	96	7	96	48	3
STR	76	192	1
SI_	76	192	1	96	48	5
TAP	76	288	7
HLD	76	336	7	96
TAP	77	48	0
TAP	77	96	0
TAP	77	192	3
TAP	77	192	4
TAP	77	240	3
TAP	77	240	4
BRK	77	336	1
BRK	77	336	6
XTP	78	48	2
XTP	78	96	2
XTP	78	96	4
XTP	78	192	3
XTP	78	192	5
XTP	78	288	1
XTP	78	288	6
STR	79	0	0
SI_	79	0	0	96	48	4
STR	79	96	7
SI_	79	96	7	96	48	5
STR	79	192	1
SI_	79	192	1	96	48	3
TAP	79	288	7
TAP	80	0	6
TAP	80	48	6
TAP	80	96	4
TAP	80	144	4
TAP	80	192	7
TAP	80	240	7
TAP	80	288	2
TAP	80	336	2
STR	81	0	7
SI_	81	0	7	96	48	3
STR	81	96	0
SI_	81	96	0	96	48	2
STR	81	192	6
SI_	81	192	6	96	48	4
TAP	81	288	0
TAP	82	0	1
TAP	82	48	1
TAP	82	96	3
TAP	82	144	3
TAP	82	192	0
TAP	82	240	0
TAP	82	288	1
TAP	82	288	6
TAP	83	0	5
TAP	83	48	3
TAP	83	96	6
TAP	83	144	2
TAP	83	192	4
TAP	83	240	1
TAP	83	288	5
TAP	83	336	4
TAP	84	0	6
TAP	84	48	2
TAP	84	96	3
TAP	84	144	1
TAP	84	192	7
TAP	84	240	7
TAP	84	288	2
TAP	84	288	6
TAP	85	0	4
TAP	85	0	5
TAP	85	48	4
TAP	85	48	5
TAP	85	144	2
TAP	85	144	3
TAP	85	192	2
TAP	85	192	3
BRK	85	288	0
BRK	85	288	7
BRK	86	0	1
BRK	86	0	6
BRK	86	96	2
BRK	86	96	5
HLD	86	192	6	96
HLD	86	288	4	96
HLD	87	0	3	96
HLD	87	96	1	96
BST	87	192	7
SCL	87	192	7	96	768	0
STR	90	192	0
SI_	90	192	0	96	288	4
TAP	92	0	5
TAP	92	96	3
TAP	92	192	2
TAP	92	288	2
TAP	93	0	4
TAP	93	96	2
HLD	93	96	5	48
TTP	93	192	0	E	0	M1
TTP	93	240	7	E	0	M1
TTP	93	288	0	C	0	M1
TTP	93	336	6	E	0	M1
TTP	94	0	4	E	0	M1
TTP	94	48	5	E	0	M1
TAP	94	96	1
TAP	94	192	1
HLD	94	288	1	48
TTP	95	0	0	E	0	M1
TTP	95	48	1	E	0	M1
TTP	95	96	0	C	0	M1
TTP	95	144	2	E	0	M1
TTP	95	192	4	E	0	M1
TTP	95	240	3	E	0	M1
TAP	95	288	6
TAP	96	0	6
HLD	96	96	6	48
TTP	96	192	0	E	0	M1
TTP	96	240	7	E	0	M1
TTP	96	288	0	C	0	M1
TTP	96	336	6	E	0	M1
TTP	97	0	4	E	0	M1
TTP	97	48	5	E	0	M1
TAP	97	96	1
TAP	97	192	1
HLD	97	288	1	48
TTP	98	0	0	E	0	M1
TTP	98	48	1	E	0	M1
TTP	98	96	0	C	0	M1
TTP	98	144	2	E	0	M1
TTP	98	192	4	E	0	M1
TTP	98	240	3	E	0	M1
STR	98	288	7
SF_	98	288	7	96	96	3
TAP	99	192	3
TAP	99	192	4
TAP	99	240	3
TAP	99	240	4
TAP	99	336	3
TAP	99	336	4
TAP	100	0	3
STR	100	0	4
SCR	100	0	4	96	192	3
TTP	100	96	0	C	1	M1
STR	101	0	1
SI_	101	0	1	96	48	5
STR	101	96	6
SI_	101	96	6	96	48	0
STR	101	192	2
SI_	101	192	2	96	48	4
STR	101	288	7
SI_	101	288	7	96	48	3
STR	102	0	0
SI_	102	0	0	96	48	2
STR	102	96	6
SI_	102	96	6	96	48	4
HLD	102	192	0	96
TAP	102	288	3
STR	102	336	3
SI_	102	336	3	96	48	7
TAP	103	48	0
STR	103	96	0
SI_	103	96	0	96	48	4
TAP	103	192	5
TAP	103	288	6
STR	104	0	6
SI_	104	0	6	96	48	2
STR	104	96	1
SI_	104	96	1	96	48	7
STR	104	192	5
SI_	104	192	5	96	48	3
STR	104	288	0
SI_	104	288	0	96	48	4
STR	105	0	7
SI_	105	0	7	96	48	5
STR	105	96	1
SI_	105	96	1	96	48	3
HLD	105	192	7	96
TAP	105	288	4
STR	105	336	4
SI_	105	336	4	96	48	0
TAP	106	48	7
STR	106	96	7
SI_	106	96	7	96	48	3
TAP	106	192	2
TAP	106	288	1
TAP	107	0	0
TAP	107	48	0
TAP	107	96	3
TAP	107	144	3
STR	107	192	1
SCR	107	192	1	96	144	6
TAP	107	288	7
TAP	108	0	7
TAP	108	96	0
TAP	108	96	7
TAP	108	192	7
TAP	108	240	7
TAP	108	288	4
TAP	108	336	4
STR	109	0	6
SCL	109	0	6	96	144	1
TAP	109	96	0
TAP	109	192	0
TAP	109	288	0
TAP	109	288	7
HLD	110	0	1	64
TAP	110	64	3
HLD	110	96	3	64
TAP	110	160	4
HLD	110	192	4	64
TAP	110	256	6
HLD	110	288	6	64
TAP	110	352	0
HLD	111	0	0	64
TAP	111	64	7
HLD	111	96	7	64
TAP	111	160	0
TAP	111	192	0
TAP	111	288	1
TAP	111	288	3
TAP	112	0	4
TAP	112	0	6
BRK	112	96	0
BRK	112	96	7
TAP	112	288	3
TAP	112	288	4
TAP	113	0	2
TAP	113	0	5
STR	113	96	6
SI_	113	96	6	96	48	2
STR	113	192	1
SI_	113	192	1	96	48	5
STR	113	288	7
SI_	113	288	7	96	48	4
STR	114	0	3
SI_	114	0	3	96	48	0
TAP	114	96	7
TAP	114	192	6
TAP	114	240	6
TAP	114	288	0
TAP	114	336	7
TAP	115	0	3
TAP	115	48	3
TAP	115	96	4
TAP	115	144	2
TAP	115	192	6
TAP	115	240	6
TAP	115	288	0
TAP	115	336	7
TAP	116	0	1
TAP	116	0	5
TAP	116	96	2
TAP	116	96	6
TAP	116	192	3
STR	116	192	7
SI_	116	192	7	96	48	3
STR	116	288	1
SI_	116	288	1	96	48	6
STR	117	0	5
SI_	117	0	5	96	48	2
TAP	117	96	0
TAP	117	192	1
TAP	117	240	1
TAP	117	288	7
TAP	117	336	0
TAP	118	0	4
TAP	118	48	4
TAP	118	96	3
TAP	118	144	5
TAP	118	192	1
TAP	118	240	1
TAP	118	288	7
TAP	119	0	3
TAP	119	0	5
TAP	119	96	6
TAP	119	144	4
TAP	119	144	6
TAP	119	240	7
TAP	119	288	4
TAP	119	288	7
TAP	120	0	2
TAP	120	0	5
TAP	120	96	0
TAP	120	96	3
TAP	120	192	2
TAP	120	192	4
TAP	120	288	1
TAP	120	336	1
TAP	120	336	3
TAP	121	48	0
TAP	121	96	0
TAP	121	96	3
TAP	121	192	2
TAP	121	192	5
TAP	121	288	4
TAP	121	288	7
TAP	122	0	6
TAP	122	48	6
TAP	122	96	3
TAP	122	144	5
TAP	122	192	0
TAP	122	240	0
TAP	122	288	4
TAP	122	336	2
TAP	123	0	7
TAP	123	48	7
TAP	123	96	3
TAP	123	192	4
TAP	123	192	6
TAP	123	288	0
TAP	123	288	7
TAP	124	0	1
TAP	124	0	3
TAP	124	96	3
TAP	124	96	4
TAP	124	192	5
TAP	124	240	4
TAP	124	288	3
TAP	124	336	2
TAP	125	0	2
TAP	125	0	4
TAP	125	240	3
TAP	125	240	6
TAP	126	48	0
TAP	126	48	7
TAP	126	288	1
TAP	126	288	4
TAP	127	0	3
TAP	127	0	4
TAP	127	96	3
TAP	127	96	6
TAP	127	192	2
TAP	127	240	2
TAP	127	288	4
TAP	127	336	4
TAP	128	0	3
TAP	128	48	5
TAP	128	96	2
TAP	128	144	2
TAP	128	192	4
TAP	128	240	3
TAP	128	288	4
TAP	128	336	2
TAP	128	336	5
STR	129	0	2
SI_	129	0	2	96	48	7
STR	129	0	5
SI_	129	0	5	96	48	0

T_REC_TAP	508
T_REC_BRK	16
T_REC_XTP	16
T_REC_HLD	70
T_REC_XHO	0
T_REC_STR	62
T_REC_BST	1
T_REC_XST	0
T_REC_TTP	25
T_REC_THO	1
T_REC_SLD	63
T_REC_ALL	762
T_NUM_TAP	611
T_NUM_BRK	17
T_NUM_HLD	71
T_NUM_SLD	63
T_NUM_ALL	762
T_JUDGE_TAP	628
T_JUDGE_HLD	219
T_JUDGE_SLD	63
T_JUDGE_ALL	910
TTM_EACHPAIRS	127
TTM_SCR_TAP	305500
TTM_SCR_BRK	44200
TTM_SCR_HLD	71000
TTM_SCR_SLD	94500
TTM_SCR_ALL	515200
TTM_SCR_S	498100
TTM_SCR_SS	513500
TTM_RAT_ACV	10033

