VERSION	0.00.00	1.03.00
FES_MODE	0
BPM_DEF	205.000	205.000	205.000	205.000
MET_DEF	4	4
RESOLUTION	384
CLK_DEF	384
COMPATIBLE_CODE	MA2

BPM	0	0	205.000
MET	0	0	4	4
MET	50	0	4	3
MET	62	0	8	9
MET	71	0	4	4
MET	83	0	4	7
MET	86	192	4	4
MET	87	192	4	3
MET	125	0	8	9

STR	2	0	2
SI_	2	0	2	96	288	5
STR	4	0	6
SI_	4	0	6	96	288	1
STR	6	0	2
SI_	6	0	2	96	288	6
STR	8	0	7
SI_	8	0	7	96	288	3
TAP	10	0	2
TAP	10	96	2
TAP	10	192	2
TAP	10	288	4
TAP	11	0	3
TAP	11	96	4
TAP	11	192	2
TAP	11	288	2
TAP	11	288	3
TAP	12	96	5
TAP	12	192	5
TAP	12	288	5
TAP	13	0	3
TAP	13	96	4
TAP	13	192	3
TAP	13	288	5
TAP	14	0	4
TAP	14	0	5
TAP	14	192	1
TAP	14	288	1
TAP	15	0	1
TAP	15	96	7
TAP	15	192	0
TAP	15	288	7
TAP	16	0	1
TAP	16	96	0
TAP	16	96	1
TAP	16	288	1
TAP	17	0	2
TAP	17	96	3
TAP	17	192	4
TAP	17	288	3
HLD	18	0	2	336
BRK	18	0	5
HLD	18	336	3	432
HLD	20	0	4	384
TAP	21	0	6
TAP	21	96	6
XTP	21	192	6
HLD	22	0	4	336
HLD	22	336	2	384
STR	23	336	3
SI_	23	336	3	96	336	7
XTP	25	192	0
TAP	26	0	1
TAP	26	96	2
TAP	26	192	3
TAP	26	288	4
XTP	26	336	4
HLD	27	48	3	144
HLD	27	48	5	144
TAP	28	0	4
TAP	28	96	4
TAP	28	192	3
TAP	28	288	3
TAP	29	0	3
TAP	29	0	4
TAP	29	96	3
TAP	29	96	4
XTP	29	192	2
XTP	29	192	5
TTP	30	0	3	B	0	L1
TTP	30	0	4	E	0	L1
TTP	30	288	2	B	0	L1
TTP	30	288	3	E	0	L1
TTP	31	192	5	B	0	L1
TTP	31	192	6	E	0	L1
TTP	32	96	4	B	0	L1
TTP	32	192	3	B	0	L1
TTP	32	288	2	B	0	L1
TTP	33	0	2	E	0	L1
TTP	33	288	4	B	0	L1
TTP	33	288	6	E	0	L1
TTP	34	192	3	B	0	L1
TTP	34	192	5	B	0	L1
TTP	35	96	2	B	0	L1
TTP	35	192	3	B	0	L1
TTP	35	288	4	B	0	L1
TTP	36	0	5	E	0	L1
TTP	36	288	0	C	0	L1
TTP	36	288	5	B	0	L1
TTP	37	192	1	B	0	L1
TTP	37	192	1	E	0	L1
TTP	38	96	6	E	0	L1
TTP	38	192	5	B	0	L1
TTP	38	288	4	B	0	L1
TTP	39	0	3	E	0	L1
TTP	39	0	4	E	0	L1
TTP	39	288	4	B	0	L1
TTP	39	288	5	B	0	L1
TTP	39	288	6	E	0	L1
TTP	40	192	2	E	0	L1
TTP	40	192	2	B	0	L1
TTP	40	192	3	B	0	L1
TTP	41	96	0	C	1	L1
TTP	41	96	5	B	0	L1
TTP	41	96	6	B	0	L1
XTP	42	0	7
TAP	42	192	5
HLD	42	288	5	288
TAP	43	192	4
TAP	44	0	3
HLD	44	96	3	288
TAP	45	0	2
TAP	45	192	1
TAP	45	288	1
BST	46	0	2
SCL	46	0	2	96	480	5
THO	48	0	0	360	C	1	L1
TAP	50	0	2
TAP	50	96	2
TAP	50	192	2
TAP	50	192	3
TAP	50	288	1
TAP	51	0	1
TAP	51	96	0
TAP	51	96	1
TAP	51	192	7
TAP	51	288	7
TAP	52	0	0
TAP	52	0	7
TAP	52	96	6
TAP	52	192	5
TAP	52	288	4
TAP	53	0	3
TAP	53	96	3
TAP	53	192	3
TAP	53	192	4
TAP	53	288	5
TAP	54	0	5
TAP	54	96	3
TAP	54	96	5
TAP	54	192	2
TAP	54	288	2
TAP	55	0	2
TAP	55	0	4
XTP	55	96	3
XTP	55	96	5
XTP	55	192	2
XTP	55	192	6
XTP	55	288	1
XTP	55	288	7
XTP	56	0	0
TAP	56	96	0
STR	56	192	0
SI_	56	192	0	96	192	4
SI_	56	192	0	96	192	5
XTP	57	192	3
XTP	57	288	3
STR	58	0	3
SI_	58	0	3	96	192	6
SI_	58	0	3	96	192	7
XTP	59	0	0
XTP	59	96	0
TAP	59	192	1
TAP	59	192	3
TAP	59	288	4
TAP	60	0	5
TAP	60	96	6
TAP	60	192	7
TAP	60	288	0
TAP	60	336	0
TAP	61	48	7
XTP	61	96	7
TAP	61	192	1
XTP	61	288	2
BRK	62	0	3
BRK	62	0	5
XHO	62	240	2	192
HLD	63	48	4	240
TAP	63	288	3
TAP	64	0	3
HLD	64	96	3	240
HLD	64	336	5	192
HLD	65	144	3	240
TAP	66	0	4
TAP	66	96	4
XTP	66	192	2
TAP	66	288	2
TAP	67	0	1
TAP	67	96	0
TAP	67	192	7
TAP	67	288	6
TAP	68	0	5
XTP	68	96	4
XTP	68	192	3
TAP	68	288	2
TAP	69	0	1
TAP	69	0	7
TAP	69	96	0
TAP	69	144	0
STR	69	240	7
SUL	69	240	7	96	288	0
XHO	71	0	1	192
XTP	71	0	7
HLD	71	192	3	192
TAP	72	0	2
TAP	72	96	3
TAP	72	96	4
TAP	72	192	4
TAP	72	192	5
HLD	73	0	6	192
HLD	73	192	4	192
TAP	74	0	5
TAP	74	96	3
TAP	74	96	4
TAP	74	192	2
TAP	74	192	3
HLD	75	0	0	192
TAP	75	192	7
TAP	75	288	7
TAP	76	0	0
TAP	76	0	6
TAP	76	96	0
TAP	76	96	6
TAP	76	192	1
TAP	76	192	5
TAP	77	0	3
TAP	77	0	5
TAP	77	96	4
TAP	77	144	4
STR	77	240	3
SCL	77	240	3	96	240	0
XTP	79	0	7
TAP	79	96	6
TAP	79	192	5
TAP	79	288	5
TAP	80	0	0
TAP	80	0	5
TAP	80	96	1
TAP	80	192	2
TAP	80	192	3
TAP	81	0	0
TAP	81	96	1
TAP	81	192	2
TAP	81	288	2
TAP	82	0	2
TAP	82	0	7
TAP	82	96	6
TAP	82	192	4
TAP	82	192	5
XTP	83	0	2
XTP	83	0	3
XTP	83	144	3
XTP	83	144	4
XTP	83	288	4
XTP	83	288	5
XTP	84	48	3
XTP	84	48	4
XTP	84	192	2
XTP	84	288	1
TAP	85	0	0
TAP	85	48	0
TAP	85	144	7
TAP	85	192	7
TAP	85	288	0
TAP	86	0	1
TAP	86	96	2
TAP	86	96	4
XHO	86	192	3	192
XHO	86	192	5	192
BST	87	192	4
SCR	87	192	4	96	768	3
XST	90	192	3
SUR	90	192	3	96	480	4
TAP	92	288	3
TAP	92	288	4
TAP	93	96	2
XST	93	192	2
SUL	93	192	2	96	480	1
TAP	95	288	2
TAP	95	288	5
TAP	96	96	6
XST	96	192	6
SUL	96	192	6	96	480	5
HLD	98	288	0	144
HLD	98	288	7	144
XHO	99	192	1	144
XHO	99	192	6	144
BRK	100	96	1
BRK	100	96	6
TAP	101	0	1
TAP	101	96	0
TAP	101	192	0
TAP	101	192	1
TAP	101	288	2
TAP	101	288	7
TAP	102	0	3
TAP	102	0	6
TAP	102	96	4
TAP	102	96	5
TAP	102	192	6
TAP	102	288	7
TAP	103	0	6
TAP	103	0	7
TAP	103	96	0
TAP	103	96	5
TAP	103	192	1
TAP	103	192	4
TAP	103	288	2
TAP	103	288	3
TAP	104	0	4
TAP	104	96	4
TAP	104	192	3
TAP	104	192	5
TAP	104	288	2
TAP	105	0	2
TAP	105	96	1
TAP	105	96	3
TAP	105	192	2
TAP	105	288	3
TAP	106	0	4
XTP	106	96	2
XTP	106	96	5
BRK	106	192	1
BRK	106	192	6
TAP	107	0	7
TAP	107	96	7
STR	107	192	6
SCL	107	192	6	96	192	3
XTP	108	192	2
XTP	108	288	2
STR	109	0	1
SUR	109	0	1	96	192	5
TAP	110	0	7
TAP	110	96	6
TAP	110	192	5
TAP	110	288	4
TAP	111	0	3
TAP	111	96	2
TAP	111	192	1
TAP	111	288	0
TAP	112	0	7
BRK	112	96	1
BRK	112	96	6
XTP	113	0	2
TAP	113	48	2
TAP	113	96	2
TAP	113	192	3
TAP	113	192	4
TAP	113	288	4
TAP	113	288	5
TAP	114	0	3
TAP	114	0	6
TAP	114	96	2
TAP	114	96	7
TAP	114	192	1
TAP	114	240	1
TAP	114	288	1
TAP	115	0	0
TAP	115	0	1
TAP	115	96	2
TAP	115	96	7
TAP	115	288	2
TAP	115	288	5
TAP	116	0	6
TAP	116	96	6
TAP	116	192	6
TAP	116	192	7
TAP	116	288	0
TAP	117	0	1
TAP	117	96	0
TAP	117	96	1
TAP	117	192	2
TAP	117	288	3
TAP	118	0	2
TAP	118	0	3
TAP	118	96	4
TAP	118	192	5
TAP	118	288	6
XTP	119	0	6
XTP	119	96	6
XTP	119	96	7
STR	119	192	6
SI_	119	192	6	96	192	2
STR	119	192	7
SI_	119	192	7	96	192	3
XTP	120	192	1
XTP	120	288	0
XTP	120	288	1
STR	121	0	0
SI_	121	0	0	96	192	4
STR	121	0	1
SI_	121	0	1	96	192	5
XTP	122	0	6
XTP	122	96	7
XTP	122	192	0
XTP	122	192	5
XTP	122	288	1
XTP	123	0	0
XTP	123	96	2
XTP	123	96	7
TAP	123	192	3
TAP	123	192	6
TAP	123	288	4
TAP	123	288	5
TAP	124	0	2
TAP	124	0	3
BRK	124	96	1
BRK	124	96	4
TAP	124	288	5
XTP	125	0	2
XHO	125	0	5	240
XHO	125	240	4	192
XHO	126	48	3	240
XTP	126	288	2
XTP	127	0	2
XTP	127	0	3
TAP	127	96	1
TAP	127	192	2
XTP	127	288	3
XTP	127	336	3
TAP	128	48	4
XTP	128	144	2
XTP	128	144	5
XTP	128	240	2
XTP	128	240	5
XTP	128	336	3
XTP	128	336	4
XTP	129	0	3
XTP	129	0	4
BRK	129	96	2
BRK	129	96	5

T_REC_TAP	244
T_REC_BRK	13
T_REC_XTP	67
T_REC_HLD	19
T_REC_XHO	9
T_REC_STR	15
T_REC_BST	2
T_REC_XST	3
T_REC_TTP	36
T_REC_THO	1
T_REC_SLD	22
T_REC_ALL	431
T_NUM_TAP	365
T_NUM_BRK	15
T_NUM_HLD	29
T_NUM_SLD	22
T_NUM_ALL	431
T_JUDGE_TAP	380
T_JUDGE_HLD	142
T_JUDGE_SLD	22
T_JUDGE_ALL	544
TTM_EACHPAIRS	84
TTM_SCR_TAP	182500
TTM_SCR_BRK	39000
TTM_SCR_HLD	29000
TTM_SCR_SLD	33000
TTM_SCR_ALL	283500
TTM_SCR_S	273550
TTM_SCR_SS	282000
TTM_RAT_ACV	10053

