VERSION	0.00.00	1.03.00
FES_MODE	0
BPM_DEF	205.000	205.000	205.000	205.000
MET_DEF	4	4
RESOLUTION	384
CLK_DEF	384
COMPATIBLE_CODE	MA2

BPM	0	0	205.000
MET	0	0	4	4
MET	30	0	4	3
MET	42	0	4	4
MET	50	0	4	3
MET	62	0	8	9
MET	71	0	4	4
MET	83	0	4	7
MET	86	192	4	4
MET	87	192	4	3
MET	125	0	8	9

TAP	10	0	0
TAP	10	192	0
TAP	11	0	1
TAP	11	192	1
TAP	12	0	2
TAP	12	192	2
TAP	13	0	3
TAP	13	192	3
XTP	14	0	3
XTP	14	0	4
TAP	14	192	4
TAP	15	0	4
TAP	15	192	5
TAP	16	0	5
TAP	16	192	6
TAP	17	0	6
XTP	17	192	0
XTP	17	192	7
STR	18	0	7
SI_	18	0	7	96	288	3
TAP	20	0	2
TAP	20	192	2
TAP	21	0	1
TAP	21	192	1
STR	22	0	0
SI_	22	0	0	96	288	4
TAP	24	0	5
TAP	24	192	5
TAP	25	0	6
BRK	25	192	6
STR	26	0	7
SI_	26	0	7	96	288	4
STR	28	0	0
SI_	28	0	0	96	288	3
XHO	30	0	4	288
XHO	31	192	3	288
XHO	33	0	4	288
XHO	33	0	5	288
XHO	34	192	2	288
XHO	34	192	3	288
TAP	36	0	2
TAP	36	192	3
TAP	36	288	3
TAP	37	96	4
TAP	37	192	4
TAP	38	0	5
XTP	38	96	4
XTP	38	96	5
TAP	39	0	5
TAP	39	192	4
TAP	39	288	4
TAP	40	96	3
TAP	40	192	3
TAP	41	0	2
XTP	41	96	2
XTP	41	96	3
STR	42	0	1
SI_	42	0	1	96	288	5
TAP	44	0	6
TAP	44	192	6
TAP	45	0	7
TAP	45	192	7
STR	46	0	6
SI_	46	0	6	96	288	2
HLD	48	0	0	384
HLD	48	0	1	384
XTP	50	0	0
XTP	50	0	1
TAP	50	192	2
TAP	51	0	2
XTP	51	192	3
XTP	51	192	4
TAP	52	0	5
TAP	52	192	5
XTP	53	0	6
XTP	53	0	7
TAP	53	192	5
TAP	54	0	5
XHO	54	192	3	288
XHO	54	192	4	288
TAP	56	0	2
TAP	56	96	2
TAP	56	192	2
BRK	56	288	2
TAP	57	192	5
TAP	57	288	5
TAP	58	0	5
BRK	58	96	5
TAP	59	0	3
TAP	59	0	4
TAP	59	288	2
TAP	59	288	5
XHO	60	192	1	288
XHO	60	192	6	288
STR	62	0	0
SI_	62	0	0	96	336	4
XTP	63	288	7
STR	64	96	7
SI_	64	96	7	96	336	3
XTP	66	0	1
STR	66	192	1
SI_	66	192	1	96	336	4
XTP	68	96	6
STR	68	288	6
SI_	68	288	6	96	336	3
TAP	71	0	0
TAP	71	96	0
TAP	71	192	0
TAP	72	0	1
TAP	72	96	1
TAP	72	192	1
TAP	73	0	2
TAP	73	96	2
TAP	73	192	3
TAP	73	288	3
TAP	74	0	4
TAP	74	192	3
TAP	74	192	4
TAP	75	0	4
TAP	75	96	4
TAP	75	192	4
TAP	76	0	5
TAP	76	96	5
TAP	76	192	5
TAP	77	0	6
TAP	77	96	6
TAP	77	192	7
TAP	77	288	7
TAP	78	0	0
XTP	78	192	0
XTP	78	192	7
HLD	79	0	0	192
HLD	79	0	1	192
TAP	80	0	7
TAP	80	96	0
TAP	80	192	7
HLD	81	0	6	192
HLD	81	0	7	192
TAP	82	0	0
TAP	82	96	7
TAP	82	192	0
STR	83	0	0
SI_	83	0	0	96	288	3
STR	83	0	7
SI_	83	0	7	96	288	4
HLD	84	288	2	672
HLD	84	288	5	672
TTP	87	192	3	B	0	L1
TTP	89	0	4	B	0	L1
TTP	90	192	2	B	0	L1
TTP	92	0	5	B	0	L1
TTP	93	192	3	B	0	L1
TTP	93	192	4	B	0	L1
TTP	95	0	2	B	0	L1
TTP	95	0	5	B	0	L1
TTP	96	192	1	B	0	L1
TTP	96	192	6	B	0	L1
THO	98	0	0	576	C	1	L1
TAP	101	0	0
TAP	101	96	0
TAP	101	288	1
TAP	102	0	1
TAP	102	192	2
TAP	102	288	2
TAP	103	96	3
TAP	103	96	4
TAP	104	0	4
TAP	104	96	4
TAP	104	288	5
TAP	105	0	5
TAP	105	192	6
TAP	105	288	6
XTP	106	96	0
XTP	106	96	7
TAP	107	0	0
TAP	107	96	0
XTP	107	288	1
XTP	107	288	7
TAP	108	192	7
TAP	108	288	7
TAP	109	96	0
TAP	109	96	6
TAP	110	0	5
TAP	110	96	5
TAP	110	288	4
TAP	111	0	4
TAP	111	192	3
TAP	111	288	3
XTP	112	96	2
XTP	112	96	4
TAP	113	0	2
TAP	113	96	2
TAP	113	192	2
TAP	113	288	3
TAP	114	0	3
TAP	114	96	3
TAP	114	192	4
TAP	114	288	4
TAP	115	0	4
XTP	115	96	3
XTP	115	96	5
TAP	116	0	5
TAP	116	96	5
TAP	116	192	5
TAP	116	288	4
TAP	117	0	4
TAP	117	96	4
TAP	117	192	3
TAP	117	288	3
TAP	118	0	3
XTP	118	96	2
XTP	118	96	4
TAP	119	0	0
TAP	119	96	0
TAP	119	192	0
TAP	119	288	1
TAP	119	288	7
TAP	120	192	7
TAP	120	288	7
TAP	121	0	7
TAP	121	96	0
TAP	121	96	6
TAP	122	0	0
TAP	122	96	0
TAP	122	192	0
TAP	122	288	7
TAP	123	0	7
TAP	123	96	7
HLD	123	192	1	288
HLD	123	192	6	288
STR	125	0	0
SI_	125	0	0	96	336	3
XTP	126	288	7
XTP	127	0	7
STR	127	96	7
SI_	127	96	7	96	336	4
XTP	129	0	0
BRK	129	96	0

T_REC_TAP	143
T_REC_BRK	4
T_REC_XTP	32
T_REC_HLD	10
T_REC_XHO	10
T_REC_STR	14
T_REC_BST	0
T_REC_XST	0
T_REC_TTP	10
T_REC_THO	1
T_REC_SLD	14
T_REC_ALL	238
T_NUM_TAP	199
T_NUM_BRK	4
T_NUM_HLD	21
T_NUM_SLD	14
T_NUM_ALL	238
T_JUDGE_TAP	203
T_JUDGE_HLD	144
T_JUDGE_SLD	14
T_JUDGE_ALL	361
TTM_EACHPAIRS	30
TTM_SCR_TAP	99500
TTM_SCR_BRK	10400
TTM_SCR_HLD	21000
TTM_SCR_SLD	21000
TTM_SCR_ALL	151900
TTM_SCR_S	147000
TTM_SCR_SS	151500
TTM_RAT_ACV	10026

