VERSION	0.00.00	1.03.00
FES_MODE	0
BPM_DEF	175.000	175.000	175.000	175.000
MET_DEF	4	4
RESOLUTION	384
CLK_DEF	384
COMPATIBLE_CODE	MA2

BPM	0	0	175.000
MET	0	0	4	4

HLD	1	0	2	216
TAP	1	0	7
TAP	1	144	3
TAP	1	216	3
TAP	1	288	2
TAP	1	288	4
TAP	2	0	1
HLD	2	0	5	216
TAP	2	144	4
TAP	2	216	4
TAP	2	288	3
TAP	2	288	5
TAP	3	0	2
HLD	3	0	4	216
TAP	3	144	5
TAP	3	216	5
TAP	3	288	3
TAP	3	288	6
HLD	4	0	3	216
TAP	4	0	5
TAP	4	144	2
TAP	4	216	2
TAP	4	288	1
TAP	4	288	4
TAP	5	0	3
HLD	5	0	6	96
TAP	5	96	5
TAP	5	168	5
TAP	5	192	4
TAP	5	240	4
TAP	5	288	2
TAP	5	288	6
HLD	6	0	1	96
TAP	6	0	5
TAP	6	96	2
TAP	6	168	2
TAP	6	192	3
TAP	6	240	3
TAP	6	288	1
TAP	6	288	5
TAP	7	0	3
HLD	7	0	4	96
TAP	7	96	3
TAP	7	168	3
TAP	7	192	4
TAP	7	240	2
TAP	7	240	5
TAP	7	288	1
TAP	7	288	6
TAP	7	336	1
TAP	7	336	6
TAP	8	0	2
TAP	8	48	3
TAP	8	96	4
TAP	8	144	5
STR	8	192	6
SI_	8	192	6	96	48	3
STR	8	192	7
SI_	8	192	7	96	48	2
TAP	8	240	0
TAP	8	240	5
XTP	8	288	6
XTP	8	288	7
XHO	9	0	1	96
XHO	9	0	4	96
XHO	9	144	3	96
XHO	9	144	6	96
TAP	9	288	3
TAP	9	288	6
TAP	9	336	2
TAP	9	336	5
HLD	10	0	1	72
TAP	10	0	4
HLD	10	72	2	72
STR	10	144	3
SCR	10	144	3	96	48	6
TAP	10	288	7
TAP	10	312	0
TAP	10	336	1
TAP	10	360	2
XHO	11	0	3	96
XHO	11	0	6	96
XHO	11	144	1	96
XHO	11	144	4	96
TAP	11	288	1
TAP	11	288	4
TAP	11	336	2
TAP	11	336	5
HLD	12	0	3	72
TAP	12	0	6
HLD	12	72	4	72
STR	12	144	5
SCR	12	144	5	96	96	2
TTP	12	288	0	C	1	M1
STR	13	0	6
SI_	13	0	6	96	48	3
TAP	13	48	7
TAP	13	96	6
STR	13	192	2
SI_	13	192	2	96	48	7
TAP	13	240	3
TAP	13	288	2
STR	14	0	5
SI_	14	0	5	96	48	0
TAP	14	48	4
TAP	14	96	5
STR	14	192	1
SI_	14	192	1	96	48	4
TAP	14	240	0
TAP	14	288	1
TAP	15	0	5
TAP	15	48	4
TAP	15	48	6
TAP	15	96	2
TAP	15	144	1
TAP	15	144	3
TAP	15	192	6
TAP	15	240	5
TAP	15	240	7
TAP	15	288	1
TAP	15	336	0
TAP	15	336	2
XST	16	0	7
SCL	16	0	7	96	48	4
XST	16	48	0
SCR	16	48	0	96	48	3
XTP	16	96	7
XTP	16	144	0
TAP	16	240	4
TAP	16	240	5
BRK	16	288	2
BRK	16	288	7
XTP	17	0	0
HLD	17	0	5	672
TTP	17	96	0	C	0	M1
TAP	17	192	4
TTP	17	288	0	C	0	M1
TAP	18	0	0
TTP	18	96	0	C	0	M1
STR	18	192	4
SI_	18	192	4	96	48	0
TTP	18	288	0	C	1	M1
HLD	19	0	2	672
XTP	19	0	7
TTP	19	96	0	C	0	M1
TAP	19	192	3
TTP	19	288	0	C	0	M1
TAP	20	0	7
TTP	20	96	0	C	0	M1
STR	20	192	3
SI_	20	192	3	96	48	7
TTP	20	288	0	C	1	M1
TAP	21	0	0
HLD	21	0	5	96
TTP	21	96	1	B	0	M1
TTP	21	96	2	B	0	M1
TAP	21	192	3
HLD	21	192	6	96
TTP	21	288	3	B	0	M1
TTP	21	288	4	B	0	M1
HLD	22	0	2	96
TAP	22	0	7
TTP	22	96	5	B	0	M1
TTP	22	96	6	B	0	M1
HLD	22	192	1	96
STR	22	192	4
SI_	22	192	4	96	48	0
TTP	22	288	0	C	1	M1
XTP	23	0	0
XTP	23	0	7
TAP	23	48	1
TAP	23	96	2
TAP	23	144	3
TAP	23	192	4
TAP	23	240	5
TAP	23	288	6
TAP	23	336	7
XST	24	0	0
SI_	24	0	0	96	48	2
XST	24	0	6
SI_	24	0	6	96	48	4
XST	24	96	0
SV_	24	96	0	96	48	3
XST	24	96	6
SV_	24	96	6	96	48	3
XTP	24	192	0
XTP	24	192	6
BRK	24	288	7
HLD	25	0	1	48
HLD	25	0	3	48
TAP	25	96	2
TAP	25	120	4
TAP	25	144	1
TAP	25	168	3
TAP	25	192	2
TAP	25	216	4
TAP	25	240	1
TAP	25	264	3
TAP	25	288	2
TAP	25	312	4
TAP	25	336	3
HLD	26	0	2	48
HLD	26	0	4	48
TAP	26	96	3
TAP	26	120	5
TAP	26	144	2
TAP	26	168	4
TAP	26	192	3
TAP	26	216	5
TAP	26	240	2
TAP	26	264	4
TAP	26	288	3
TAP	26	312	5
TAP	26	336	4
HLD	27	0	3	48
HLD	27	0	5	48
TAP	27	96	4
TAP	27	120	6
TAP	27	144	3
TAP	27	168	5
TAP	27	192	4
TAP	27	216	6
TAP	27	240	3
TAP	27	264	5
TAP	27	288	4
TAP	27	312	6
TAP	27	336	5
HLD	28	0	4	48
HLD	28	0	6	48
HLD	28	96	3	48
HLD	28	96	5	48
HLD	28	192	2	48
HLD	28	192	4	48
BRK	28	288	1
BRK	28	288	3
HLD	29	0	4	48
HLD	29	0	6	48
TAP	29	96	5
TAP	29	120	3
TAP	29	144	6
TAP	29	168	4
TAP	29	192	5
TAP	29	216	3
TAP	29	240	6
TAP	29	264	4
TAP	29	288	5
TAP	29	312	3
TAP	29	336	4
HLD	30	0	3	48
HLD	30	0	5	48
TAP	30	96	4
TAP	30	120	2
TAP	30	144	5
TAP	30	168	3
TAP	30	192	4
TAP	30	216	2
TAP	30	240	5
TAP	30	264	3
TAP	30	288	4
TAP	30	312	2
TAP	30	336	3
HLD	31	0	2	48
HLD	31	0	4	48
TAP	31	96	3
TAP	31	120	1
TAP	31	144	4
TAP	31	168	2
TAP	31	192	3
TAP	31	216	1
TAP	31	240	4
TAP	31	264	2
TAP	31	288	3
TAP	31	312	1
TAP	31	336	2
XTP	32	0	1
XST	32	0	3
SCR	32	0	3	96	96	6
TAP	32	96	1
TAP	32	144	2
TAP	32	192	3
TAP	32	240	4
TAP	32	288	5
TAP	32	336	6
HLD	33	0	2	48
HLD	33	0	7	48
TAP	33	96	1
TAP	33	120	0
TAP	33	144	2
TAP	33	168	7
TAP	33	192	1
TAP	33	216	0
TAP	33	240	2
TAP	33	264	7
TAP	33	288	1
TAP	33	312	0
TAP	33	336	2
HLD	34	0	0	48
HLD	34	0	5	48
TAP	34	96	6
TAP	34	120	7
TAP	34	144	5
TAP	34	168	0
STR	34	192	6
SI_	34	192	6	96	48	2
TAP	34	216	7
TAP	34	240	5
TAP	34	264	0
BRK	34	288	6
XTP	35	0	1
XTP	35	0	3
XST	35	48	1
SSR	35	48	1	96	96	5
XTP	35	48	3
TAP	35	144	7
STR	35	192	7
SI_	35	192	7	96	48	3
TAP	35	288	1
TAP	35	336	1
TAP	36	0	0
STR	36	0	2
SCR	36	0	2	96	48	5
STR	36	144	6
SUL	36	144	6	96	48	1
BRK	36	288	7
HLD	37	0	0	48
HLD	37	0	5	48
TAP	37	96	6
TAP	37	120	7
TAP	37	144	4
TAP	37	168	3
TAP	37	192	6
TAP	37	216	7
TAP	37	240	4
TAP	37	264	3
TAP	37	288	6
TAP	37	312	7
TAP	37	336	4
HLD	38	0	2	48
HLD	38	0	7	48
TAP	38	96	1
TAP	38	120	0
TAP	38	144	3
TAP	38	168	4
TAP	38	192	1
TAP	38	216	0
TAP	38	240	3
TAP	38	264	4
STR	38	288	1
SXR	38	288	1	96	576	6
BST	40	288	3
SI_	40	288	3	96	48	0
BST	40	288	4
SI_	40	288	4	96	48	7
TTP	41	0	0	C	1	M1
TTP	41	0	0	E	0	M1
TTP	41	0	4	E	0	M1
HLD	43	0	2	96
TAP	43	96	3
TAP	43	192	1
TAP	43	192	4
HLD	43	336	5	96
HLD	44	48	4	96
TAP	44	144	5
STR	44	192	3
SSR	44	192	3	96	96	7
TAP	44	192	6
XHO	45	0	6	96
TAP	45	96	7
TAP	45	192	0
TAP	45	192	4
HLD	45	336	1	96
TAP	46	48	0
TAP	46	144	3
TAP	46	144	7
STR	46	192	3
SCL	46	192	3	96	48	0
STR	46	192	7
SCL	46	192	7	96	48	4
TAP	47	0	1
TAP	47	0	3
TAP	47	48	2
TAP	47	96	4
TAP	47	96	6
TAP	47	144	5
TAP	47	192	0
TAP	47	192	3
TAP	47	240	2
TAP	47	288	4
TAP	47	288	7
TAP	47	336	5
BRK	48	0	0
HLD	48	0	3	192
BRK	48	96	1
BST	48	192	2
SCR	48	192	2	96	48	5
TTP	48	288	0	C	1	M1
TAP	49	0	4
TAP	49	0	5
TAP	49	48	0
TAP	49	96	2
TAP	49	96	3
TAP	49	144	7
TAP	49	192	4
TAP	49	192	5
TAP	49	240	0
TAP	49	288	2
TAP	49	288	3
TAP	49	336	7
TAP	50	0	4
TAP	50	0	5
STR	50	48	0
SXL	50	48	0	96	192	4
TAP	50	96	3
TAP	50	144	4
STR	50	192	5
SI_	50	192	5	96	48	7
HLD	51	0	3	96
TAP	51	96	4
TAP	51	144	3
TAP	51	192	2
TAP	51	192	5
TAP	51	240	2
STR	51	240	5
SI_	51	240	5	96	48	2
STR	51	336	1
SI_	51	336	1	96	48	6
TAP	52	48	6
STR	52	144	2
SUR	52	144	2	96	96	7
STR	52	144	5
SUL	52	144	5	96	96	0
TAP	52	192	2
TAP	52	192	5
TAP	53	0	0
TAP	53	0	1
TAP	53	48	4
TAP	53	96	6
TAP	53	96	7
TAP	53	144	3
TAP	53	192	0
TAP	53	192	1
TAP	53	240	4
TAP	53	288	6
TAP	53	288	7
TAP	53	336	3
TAP	54	0	0
TAP	54	0	1
TAP	54	48	4
TAP	54	96	6
TAP	54	96	7
TAP	54	144	3
TAP	54	192	0
STR	54	192	1
SI_	54	192	1	96	48	4
TAP	54	240	4
XTP	54	288	1
XTP	54	288	6
TAP	55	0	5
TAP	55	0	7
TAP	55	48	5
TAP	55	48	7
TAP	55	96	0
TAP	55	96	2
TAP	55	144	0
TAP	55	144	2
STR	55	192	6
SI_	55	192	6	96	48	3
TAP	55	192	7
TAP	55	240	3
XTP	55	288	1
XTP	55	288	6
TAP	56	0	0
TAP	56	24	4
TAP	56	48	0
TAP	56	72	4
TAP	56	96	1
TAP	56	120	5
TAP	56	144	1
TAP	56	168	5
STR	56	192	2
SV_	56	192	2	96	64	7
STR	56	216	6
SV_	56	216	6	96	40	3
TAP	56	240	2
TAP	56	264	6
TTP	56	288	0	C	1	M1
XHO	57	0	1	288
XHO	57	0	5	288
TAP	57	336	1
TAP	57	336	5
XHO	58	0	3	288
XHO	58	0	7	288
TAP	58	336	3
TAP	58	336	7
XTP	59	0	1
XHO	59	0	5	96
TAP	59	96	4
TAP	59	192	3
TAP	59	192	6
TAP	59	240	3
TAP	59	240	6
HLD	59	336	1	96
TAP	59	336	4
HLD	60	48	3	96
TAP	60	144	2
TAP	60	192	1
STR	60	192	4
SI_	60	192	4	96	48	7
BRK	60	288	0
XST	61	0	0
SCR	61	0	0	96	48	3
TAP	61	48	3
TAP	61	96	3
TTP	61	144	0	C	0	M1
XST	61	192	7
SCL	61	192	7	96	48	4
TAP	61	240	4
TAP	61	288	4
TTP	61	336	0	C	0	M1
XST	62	0	0
SCR	62	0	0	96	48	3
TAP	62	48	3
TAP	62	96	3
TTP	62	144	0	C	0	M1
XST	62	192	7
SCL	62	192	7	96	48	4
TAP	62	240	4
TAP	62	288	4
TTP	62	336	0	C	0	M1
TAP	63	0	0
TAP	63	48	0
TAP	63	96	1
TAP	63	96	7
TAP	63	144	1
TAP	63	144	7
TAP	63	192	2
TAP	63	192	6
TAP	63	240	2
TAP	63	240	6
TAP	63	288	3
TAP	63	288	5
TAP	63	336	3
TAP	63	336	5
TAP	64	0	4
TAP	64	24	3
TAP	64	48	4
TAP	64	72	3
TAP	64	96	5
TAP	64	120	2
TAP	64	144	5
TAP	64	168	2
TAP	64	192	6
TAP	64	216	1
TAP	64	240	6
TAP	64	264	1
TAP	64	288	7
TAP	64	312	0
TAP	64	336	7
TAP	64	360	0
BRK	65	0	1
BRK	65	0	6
TTP	66	0	0	E	0	M1
TTP	66	0	4	E	0	M1
TTP	66	0	5	E	0	M1
TTP	66	0	6	E	0	M1
TTP	66	0	7	E	0	M1
TTP	66	96	0	B	0	M1
TTP	66	96	3	B	0	M1
TTP	66	96	4	B	0	M1
TTP	66	96	5	B	0	M1
TTP	66	96	6	B	0	M1
TTP	66	96	7	B	0	M1
XST	66	192	1
SCL	66	192	1	96	96	2
TTP	66	288	0	C	1	M1
BRK	67	0	7
TAP	67	48	0
TAP	67	72	4
TAP	67	96	1
TAP	67	120	5
TAP	67	144	2
HLD	67	168	6	72
TAP	67	240	7
TAP	67	264	6
TAP	67	288	7
TAP	67	336	0
TAP	67	336	5
XTP	68	0	2
XTP	68	0	7
TAP	68	48	6
TAP	68	72	3
TAP	68	96	5
TAP	68	120	2
TAP	68	144	4
HLD	68	168	1	72
TAP	68	240	0
TAP	68	264	1
TAP	68	288	0
TAP	68	336	2
TAP	68	336	7
XTP	69	0	0
XTP	69	0	5
TAP	69	48	2
TAP	69	72	4
TAP	69	96	3
TAP	69	120	5
TAP	69	144	4
HLD	69	168	6	72
TAP	69	240	7
TAP	69	264	6
TAP	69	288	7
TAP	69	336	0
TAP	69	336	5
XTP	70	0	2
XTP	70	0	7
TAP	70	48	3
TAP	70	72	6
TAP	70	96	2
TAP	70	120	5
TAP	70	144	1
TAP	70	168	4
XTP	70	192	0
TAP	70	216	1
TAP	70	240	2
TAP	70	264	3
XTP	70	288	0
TAP	70	312	7
TAP	70	336	6
TAP	70	360	5
XTP	71	0	1
XTP	71	0	4
TAP	71	48	6
TAP	71	72	7
TAP	71	96	5
TAP	71	120	0
TAP	71	144	4
HLD	71	168	1	72
TAP	71	240	0
TAP	71	264	1
TAP	71	288	0
TAP	71	336	2
TAP	71	336	7
XTP	72	0	0
XTP	72	0	5
TAP	72	48	1
TAP	72	72	0
TAP	72	96	2
TAP	72	120	7
TAP	72	144	3
HLD	72	168	6	72
TAP	72	240	7
TAP	72	264	6
TAP	72	288	7
TAP	72	336	1
TAP	72	336	5
STR	73	0	2
SI_	73	0	2	96	48	5
STR	73	0	6
SI_	73	0	6	96	48	1
TAP	73	96	2
TAP	73	96	6
STR	73	192	3
SCL	73	192	3	96	48	0
STR	73	192	7
SCL	73	192	7	96	48	4
TAP	73	240	0
TAP	73	240	4
XTP	73	288	3
XTP	73	288	7
TTP	74	0	1	E	0	M1
TTP	74	24	6	E	0	M1
TTP	74	48	3	E	0	M1
TTP	74	72	7	E	0	M1
TTP	74	96	2	E	0	M1
TTP	74	120	5	E	0	M1
TTP	74	144	0	E	0	M1
TTP	74	168	4	E	0	M1
TTP	74	192	1	B	0	M1
TTP	74	216	5	B	0	M1
TTP	74	240	3	B	0	M1
TTP	74	264	7	B	0	M1
TTP	74	288	0	C	1	M1
BRK	74	336	1
BRK	74	336	6
TAP	75	48	2
STR	75	48	7
SCL	75	48	7	96	48	4
TAP	75	96	2
TAP	75	96	7
HLD	75	168	1	72
TAP	75	240	2
TAP	75	288	1
TAP	75	336	0
STR	76	0	7
SI_	76	0	7	96	48	2
STR	76	48	2
SCL	76	48	2	96	48	7
STR	76	96	7
SCL	76	96	7	96	48	4
HLD	76	144	3	96
TAP	76	288	1
TAP	76	288	5
TAP	77	0	6
TAP	77	0	7
TAP	77	48	0
STR	77	48	5
SCL	77	48	5	96	48	2
TAP	77	96	0
TAP	77	96	5
HLD	77	168	1	72
TAP	77	240	0
TAP	77	288	1
TAP	77	336	2
STR	78	0	3
SCL	78	0	3	96	48	0
STR	78	48	7
SCL	78	48	7	96	48	4
TAP	78	96	3
TAP	78	144	7
TAP	78	240	2
TAP	78	240	3
BRK	78	288	0
BRK	78	288	5
TAP	79	0	2
TAP	79	0	7
STR	79	48	0
SCR	79	48	0	96	48	3
TAP	79	48	5
TAP	79	96	0
TAP	79	96	5
HLD	79	168	6	72
TAP	79	240	5
TAP	79	288	6
TAP	79	336	7
STR	80	0	0
SI_	80	0	0	96	48	5
STR	80	48	5
SCR	80	48	5	96	48	0
STR	80	96	0
SCR	80	96	0	96	48	3
HLD	80	144	4	96
TAP	80	288	2
TAP	80	288	6
TAP	81	0	4
TAP	81	0	5
TAP	81	48	0
TAP	81	96	2
TAP	81	96	3
TAP	81	144	7
TAP	81	192	1
TAP	81	192	6
TAP	81	240	1
TAP	81	240	6
TAP	81	288	3
TAP	81	312	4
TAP	81	336	3
TAP	81	360	4
XTP	82	0	2
XTP	82	0	3
TAP	82	48	1
TAP	82	96	0
XTP	82	144	4
XTP	82	144	5
STR	82	192	6
SI_	82	192	6	96	48	2
TAP	82	240	7
TTP	82	288	0	C	1	M1
BRK	82	288	2
BRK	82	288	6
HLD	83	0	1	96
TAP	83	0	5
TTP	83	96	2	B	0	M1
TTP	83	96	3	E	0	M1
HLD	83	192	5	96
TAP	83	192	7
TTP	83	288	3	B	0	M1
TTP	83	288	4	B	0	M1
TAP	84	0	2
HLD	84	0	6	96
TTP	84	96	5	B	0	M1
TTP	84	96	5	E	0	M1
HLD	84	192	2	96
STR	84	192	7
SI_	84	192	7	96	48	3
TTP	84	288	0	C	1	M1
TAP	85	0	2
TAP	85	0	4
TAP	85	48	1
TAP	85	96	3
TAP	85	96	5
TAP	85	144	6
TAP	85	192	2
TAP	85	192	4
TAP	85	240	1
TAP	85	288	0
TAP	85	288	6
TAP	85	336	4
XST	86	0	1
SI_	86	0	1	96	48	3
XST	86	0	7
SI_	86	0	7	96	48	5
XST	86	96	1
SV_	86	96	1	96	48	4
XST	86	96	7
SV_	86	96	7	96	48	4
XTP	86	192	1
XTP	86	192	7
BRK	86	288	0
BRK	86	288	4
TTP	87	0	0	C	1	M1
TTP	87	0	2	B	0	M1
TTP	87	0	3	B	0	M1
TTP	87	0	3	E	0	M1
TTP	87	0	6	B	0	M1
TTP	87	0	7	B	0	M1
TTP	87	0	7	E	0	M1

T_REC_TAP	478
T_REC_BRK	21
T_REC_XTP	39
T_REC_HLD	65
T_REC_XHO	14
T_REC_STR	47
T_REC_BST	3
T_REC_XST	17
T_REC_TTP	65
T_REC_THO	0
T_REC_SLD	67
T_REC_ALL	816
T_NUM_TAP	646
T_NUM_BRK	24
T_NUM_HLD	79
T_NUM_SLD	67
T_NUM_ALL	816
T_JUDGE_TAP	670
T_JUDGE_HLD	186
T_JUDGE_SLD	67
T_JUDGE_ALL	923
TTM_EACHPAIRS	160
TTM_SCR_TAP	323000
TTM_SCR_BRK	62400
TTM_SCR_HLD	79000
TTM_SCR_SLD	100500
TTM_SCR_ALL	564900
TTM_SCR_S	545650
TTM_SCR_SS	562500
TTM_RAT_ACV	10042

