VERSION	0.00.00	1.03.00
FES_MODE	0
BPM_DEF	175.000	175.000	175.000	175.000
MET_DEF	4	4
RESOLUTION	384
CLK_DEF	384
COMPATIBLE_CODE	MA2

BPM	0	0	175.000
MET	0	0	4	4

TAP	1	0	3
HLD	1	0	4	384
HLD	2	0	3	192
TTP	2	192	2	B	0	M1
TTP	2	192	3	B	0	M1
HLD	3	0	3	384
TAP	3	0	4
HLD	4	0	4	192
TTP	4	192	4	B	0	M1
TTP	4	192	5	B	0	M1
TTP	5	0	6	B	0	M1
TTP	5	96	7	B	0	M1
TTP	5	192	0	B	0	M1
TTP	5	288	1	B	0	M1
TTP	6	0	2	B	0	M1
TTP	6	96	3	B	0	M1
TTP	6	192	4	B	0	M1
TTP	6	288	5	B	0	M1
TTP	7	0	6	B	0	M1
TTP	7	0	7	E	0	M1
TTP	7	96	1	B	0	M1
TTP	7	96	1	E	0	M1
TTP	7	192	5	B	0	M1
TTP	7	192	5	E	0	M1
TTP	7	288	2	B	0	M1
TTP	7	288	3	E	0	M1
THO	8	0	0	192	C	1	M1
XHO	9	0	0	96
XHO	9	0	1	96
XHO	9	144	2	144
XHO	9	144	7	144
XTP	10	0	6
XTP	10	0	7
XTP	10	72	6
XTP	10	72	7
XHO	10	144	0	144
XHO	10	144	5	144
XHO	11	0	4	96
XHO	11	0	5	96
XHO	11	144	3	144
XHO	11	144	6	144
XTP	12	0	2
XTP	12	0	3
XTP	12	72	2
XTP	12	72	3
XHO	12	144	1	144
XHO	12	144	4	144
TAP	13	0	3
TAP	13	0	5
TAP	13	96	6
TAP	13	192	2
TAP	13	192	4
TAP	13	288	1
TAP	14	0	4
TAP	14	0	5
TAP	14	96	6
TAP	14	192	2
TAP	14	192	3
TAP	14	288	1
TAP	15	0	4
TAP	15	0	6
TAP	15	96	7
TAP	15	192	1
TAP	15	192	3
TAP	15	288	0
BRK	16	0	0
BRK	16	0	7
BRK	16	96	1
BRK	16	96	6
HLD	16	144	1	144
HLD	16	144	6	144
HLD	17	0	4	672
STR	17	0	5
SCR	17	0	5	96	192	2
TAP	18	0	1
TAP	18	96	1
TAP	18	192	2
TAP	18	288	3
STR	19	0	2
SCL	19	0	2	96	192	5
HLD	19	0	3	672
TAP	20	0	6
TAP	20	96	6
TAP	20	192	5
TAP	20	288	4
STR	21	0	4
SUR	21	0	4	96	144	2
HLD	21	0	5	288
HLD	22	0	2	288
STR	22	0	3
SUL	22	0	3	96	144	5
STR	23	0	0
SI_	23	0	0	96	192	3
STR	23	0	7
SI_	23	0	7	96	192	4
TTP	24	0	5	B	0	M1
TTP	24	0	6	B	0	M1
TTP	24	0	6	E	0	M1
TTP	24	96	1	B	0	M1
TTP	24	96	2	B	0	M1
TTP	24	96	2	E	0	M1
TTP	24	192	3	B	0	M1
TTP	24	192	4	B	0	M1
TTP	24	192	4	E	0	M1
TTP	24	288	0	C	1	M1
TAP	25	0	0
TAP	25	0	6
TAP	25	96	1
TAP	25	144	1
TAP	25	192	3
TAP	25	240	3
TAP	25	288	2
TAP	26	0	1
TAP	26	0	7
TAP	26	96	6
TAP	26	144	6
TAP	26	192	4
TAP	26	240	4
TAP	26	288	5
TAP	27	0	0
TAP	27	0	7
TAP	27	96	1
TAP	27	96	3
TAP	27	192	3
TAP	27	192	4
TAP	27	288	4
TAP	27	288	6
STR	28	0	0
SSL	28	0	0	96	120	4
TAP	28	0	7
BRK	28	288	2
BRK	28	288	6
TAP	29	0	1
TAP	29	0	7
TAP	29	96	6
TAP	29	144	6
TAP	29	192	4
TAP	29	240	4
TAP	29	288	5
TAP	30	0	0
TAP	30	0	6
TAP	30	96	1
TAP	30	144	1
TAP	30	192	3
TAP	30	240	3
TAP	30	288	2
TAP	31	0	0
TAP	31	0	7
TAP	31	96	4
TAP	31	96	6
TAP	31	192	3
TAP	31	192	4
TAP	31	288	1
TAP	31	288	3
HLD	32	0	0	192
HLD	32	0	7	192
TTP	32	288	0	C	1	M1
TTP	32	288	3	B	0	M1
TTP	32	288	4	B	0	M1
TAP	33	0	0
TAP	33	0	6
TAP	33	96	2
TAP	33	144	2
TAP	33	192	3
TAP	33	240	3
TAP	33	288	0
TAP	34	0	1
TAP	34	0	7
TAP	34	96	5
TAP	34	144	5
TAP	34	192	4
TAP	34	240	4
BRK	34	288	7
STR	35	0	1
SUR	35	0	1	96	192	6
TAP	35	0	6
TAP	36	0	2
STR	36	0	5
SCL	36	0	5	96	144	2
BRK	36	288	0
TAP	37	0	6
TAP	37	0	7
TAP	37	96	5
TAP	37	144	5
TAP	37	192	4
TAP	37	240	4
TAP	37	288	7
TAP	38	0	0
TAP	38	0	1
TAP	38	96	2
TAP	38	144	2
TAP	38	192	3
TAP	38	240	3
STR	38	288	0
SCR	38	288	0	96	576	6
THO	39	0	0	672	C	0	M1
HLD	41	0	0	672
STR	41	0	7
SCL	41	0	7	96	192	2
TAP	42	0	3
TAP	42	96	3
TAP	42	192	2
TAP	42	288	1
STR	43	0	0
SCR	43	0	0	96	192	5
HLD	43	0	7	672
TAP	44	0	4
TAP	44	96	4
TAP	44	192	5
TAP	44	288	6
STR	45	0	0
SUR	45	0	0	96	144	6
HLD	45	0	1	288
HLD	46	0	6	288
STR	46	0	7
SUL	46	0	7	96	144	1
STR	47	0	0
SUL	47	0	0	96	192	3
STR	47	0	7
SUR	47	0	7	96	192	4
XTP	48	0	3
XTP	48	0	4
XTP	48	96	2
XTP	48	96	5
XTP	48	192	1
XTP	48	192	6
BRK	48	288	3
BRK	48	288	4
TAP	49	0	0
TAP	49	0	7
TAP	49	96	2
TAP	49	96	3
TAP	49	192	1
TAP	49	192	7
TAP	49	288	2
TAP	49	288	3
TAP	50	0	0
TAP	50	0	7
TAP	50	96	2
TAP	50	96	3
HLD	50	144	2	144
TAP	50	144	3
TAP	50	240	0
TAP	50	288	0
TAP	51	0	0
TAP	51	0	7
TAP	51	96	4
TAP	51	96	5
TAP	51	192	0
TAP	51	192	6
TAP	51	288	4
TAP	51	288	5
TAP	52	0	0
TAP	52	0	7
TAP	52	96	4
TAP	52	96	5
TAP	52	144	4
HLD	52	144	5	144
TAP	52	240	7
TAP	52	288	7
TAP	53	0	0
TAP	53	0	6
TAP	53	96	2
TAP	53	96	3
TAP	53	192	1
TAP	53	192	7
TAP	53	288	2
TAP	53	288	3
TAP	54	0	0
TAP	54	0	7
TAP	54	96	2
TAP	54	96	3
HLD	54	144	2	144
TAP	54	144	3
TAP	54	240	0
TAP	54	288	0
TAP	55	0	1
TAP	55	0	7
TAP	55	96	4
TAP	55	96	5
TAP	55	192	0
TAP	55	192	6
TAP	55	288	4
STR	55	288	5
SCR	55	288	5	96	192	2
BRK	56	288	1
BRK	56	288	5
HLD	57	0	3	192
TAP	57	0	4
TTP	57	192	2	B	0	M1
TTP	57	192	2	E	0	M1
TTP	57	192	3	E	0	M1
TAP	58	0	3
HLD	58	0	4	192
TTP	58	192	5	B	0	M1
TTP	58	192	5	E	0	M1
TTP	58	192	6	E	0	M1
HLD	59	0	2	192
TAP	59	0	3
TTP	59	192	0	B	0	M1
TTP	59	192	1	B	0	M1
TTP	59	192	1	E	0	M1
TAP	60	0	4
HLD	60	0	5	192
TTP	60	192	6	B	0	M1
TTP	60	192	7	B	0	M1
TTP	60	192	7	E	0	M1
STR	61	0	2
SI_	61	0	2	96	48	0
TAP	61	0	3
TAP	61	192	4
STR	61	192	5
SI_	61	192	5	96	48	7
TAP	62	0	0
STR	62	0	1
SI_	62	0	1	96	48	3
STR	62	192	6
SI_	62	192	6	96	48	4
TAP	62	192	7
TAP	63	0	2
TAP	63	0	3
TAP	63	96	0
TAP	63	96	1
TAP	63	192	6
TAP	63	192	7
TAP	63	288	4
TAP	63	288	5
TAP	64	0	2
TAP	64	48	2
TAP	64	96	0
TAP	64	144	0
TAP	64	192	7
TAP	64	240	7
TAP	64	288	5
STR	65	0	0
SI_	65	0	0	96	192	3
STR	65	0	7
SI_	65	0	7	96	192	4
TTP	66	0	5	B	0	M1
TTP	66	0	6	B	0	M1
TTP	66	0	6	E	0	M1
TTP	66	96	1	B	0	M1
TTP	66	96	2	B	0	M1
TTP	66	96	2	E	0	M1
TTP	66	192	3	B	0	M1
TTP	66	192	4	B	0	M1
TTP	66	192	4	E	0	M1
TTP	66	288	0	C	1	M1
TAP	67	0	0
TAP	67	0	7
TAP	67	96	1
TAP	67	144	1
STR	67	192	3
SI_	67	192	3	96	48	0
TAP	67	240	3
BRK	67	288	2
TAP	68	0	1
TAP	68	0	4
TAP	68	96	6
TAP	68	144	6
STR	68	192	4
SI_	68	192	4	96	48	7
TAP	68	240	4
BRK	68	288	5
TAP	69	0	3
TAP	69	0	6
TAP	69	96	2
TAP	69	144	3
TAP	69	192	1
TAP	69	240	5
TAP	69	288	4
TAP	69	336	6
HLD	70	0	1	96
HLD	70	96	3	96
HLD	70	192	4	96
BRK	70	288	6
TAP	71	0	0
TAP	71	0	7
TAP	71	96	6
TAP	71	144	6
STR	71	192	4
SI_	71	192	4	96	48	7
TAP	71	240	4
BRK	71	288	5
TAP	72	0	3
TAP	72	0	6
TAP	72	96	1
TAP	72	144	1
STR	72	192	3
SI_	72	192	3	96	48	0
TAP	72	240	3
BRK	72	288	2
TAP	73	0	1
TAP	73	0	4
TAP	73	96	5
TAP	73	144	4
TAP	73	192	6
TAP	73	240	2
TAP	73	288	3
TAP	73	336	1
XTP	74	0	0
XTP	74	0	7
TAP	74	96	1
TAP	74	96	6
TAP	74	144	1
TAP	74	144	6
TAP	74	192	1
TAP	74	192	6
TAP	74	240	1
TAP	74	240	6
BRK	74	288	1
BRK	74	288	6
TAP	75	0	3
TAP	75	0	4
STR	75	96	7
SCL	75	96	7	96	96	3
TAP	75	144	7
TAP	75	192	1
BRK	75	288	7
TAP	76	0	0
TAP	76	0	6
TAP	76	96	4
TAP	76	96	5
HLD	76	144	4	144
TAP	76	144	5
TAP	76	240	7
TAP	76	288	7
TAP	77	0	3
TAP	77	0	4
STR	77	96	0
SCR	77	96	0	96	96	4
TAP	77	144	0
TAP	77	192	6
BRK	77	288	0
TAP	78	0	1
TAP	78	0	7
TAP	78	96	2
TAP	78	96	3
TAP	78	144	2
HLD	78	144	3	144
TAP	78	240	0
TAP	78	288	0
TAP	79	0	3
TAP	79	0	5
STR	79	96	6
SI_	79	96	6	96	48	3
TAP	79	144	6
TAP	79	192	7
BRK	79	288	1
BRK	79	288	5
TAP	80	0	2
TAP	80	0	4
STR	80	96	1
SI_	80	96	1	96	48	4
TAP	80	144	1
TAP	80	192	0
BRK	80	288	2
BRK	80	288	6
TAP	81	0	3
TAP	81	0	4
TAP	81	48	3
TAP	81	48	4
TAP	81	96	2
TAP	81	96	5
TAP	81	144	2
TAP	81	144	5
TAP	81	192	1
TAP	81	192	6
TAP	81	240	1
TAP	81	240	6
XTP	81	288	7
XTP	81	312	0
XTP	81	336	7
XTP	81	360	0
HLD	82	0	7	96
HLD	82	144	1	96
HLD	82	144	6	96
BRK	82	288	3
BRK	82	288	4
TAP	83	0	4
STR	83	0	5
SUR	83	0	5	96	144	2
TAP	83	96	3
TAP	83	192	3
TAP	83	288	3
STR	84	0	2
SUL	84	0	2	96	144	5
TAP	84	0	3
TAP	84	96	4
TAP	84	192	4
TAP	84	288	4
STR	85	0	0
SI_	85	0	0	96	192	3
STR	85	0	7
SI_	85	0	7	96	192	4
TTP	86	0	5	B	0	M1
TTP	86	0	6	B	0	M1
TTP	86	0	6	E	0	M1
TTP	86	96	1	B	0	M1
TTP	86	96	2	B	0	M1
TTP	86	96	2	E	0	M1
TTP	86	192	3	B	0	M1
TTP	86	192	4	B	0	M1
TTP	86	192	4	E	0	M1
TTP	86	288	0	B	0	M1
THO	86	288	0	96	C	1	M1
TTP	86	288	7	B	0	M1

T_REC_TAP	278
T_REC_BRK	27
T_REC_XTP	20
T_REC_HLD	31
T_REC_XHO	12
T_REC_STR	35
T_REC_BST	0
T_REC_XST	0
T_REC_TTP	66
T_REC_THO	3
T_REC_SLD	35
T_REC_ALL	507
T_NUM_TAP	399
T_NUM_BRK	27
T_NUM_HLD	46
T_NUM_SLD	35
T_NUM_ALL	507
T_JUDGE_TAP	426
T_JUDGE_HLD	213
T_JUDGE_SLD	35
T_JUDGE_ALL	674
TTM_EACHPAIRS	130
TTM_SCR_TAP	199500
TTM_SCR_BRK	70200
TTM_SCR_HLD	46000
TTM_SCR_SLD	52500
TTM_SCR_ALL	368200
TTM_SCR_S	354550
TTM_SCR_SS	365500
TTM_RAT_ACV	10073

