VERSION	0.00.00	1.03.00
FES_MODE	0
BPM_DEF	175.000	175.000	175.000	175.000
MET_DEF	4	4
RESOLUTION	384
CLK_DEF	384
COMPATIBLE_CODE	MA2

BPM	0	0	175.000
MET	0	0	4	4

STR	1	0	2
SUL	1	0	2	96	480	4
STR	3	0	5
SUR	3	0	5	96	480	3
STR	5	0	2
SUL	5	0	2	96	480	3
STR	7	0	5
SUR	7	0	5	96	480	4
HLD	9	0	2	192
HLD	9	0	3	192
HLD	10	0	4	192
HLD	10	0	5	192
HLD	11	0	1	192
HLD	11	0	3	192
HLD	12	0	4	192
HLD	12	0	6	192
HLD	13	0	5	192
HLD	13	192	4	192
HLD	14	0	3	192
TAP	14	192	2
HLD	15	0	1	192
HLD	15	192	0	192
TAP	16	0	7
XTP	16	192	1
XTP	16	192	6
TTP	17	0	1	E	0	L1
TTP	17	192	0	C	0	L1
TTP	18	0	4	B	0	L1
TTP	18	0	5	B	0	L1
TTP	19	0	7	E	0	L1
TTP	19	192	0	C	0	L1
TTP	20	0	2	B	0	L1
TTP	20	0	3	B	0	L1
TTP	21	0	2	E	0	L1
TTP	21	96	1	B	0	L1
TTP	21	192	0	B	0	L1
TTP	22	0	7	B	0	L1
TTP	22	96	6	B	0	L1
TTP	22	192	6	E	0	L1
THO	23	0	0	192	C	0	L1
XTP	24	0	0
XTP	24	0	7
XTP	24	96	0
XTP	24	96	7
BRK	24	192	1
BRK	24	192	6
TAP	25	0	2
TAP	25	96	2
TAP	25	96	3
TAP	25	192	1
TAP	25	192	4
TAP	26	0	5
TAP	26	96	4
TAP	26	96	5
TAP	26	192	3
TAP	26	192	6
TAP	27	0	5
TAP	27	96	5
TAP	27	192	4
TAP	27	288	4
TAP	28	0	3
TAP	28	96	2
XTP	28	192	1
XTP	28	192	4
TAP	29	0	5
TAP	29	96	4
TAP	29	96	5
TAP	29	192	3
TAP	29	192	6
TAP	30	0	2
TAP	30	96	2
TAP	30	96	3
TAP	30	192	1
TAP	30	192	4
TAP	31	0	0
TAP	31	96	0
TAP	31	192	7
TAP	31	288	7
HLD	32	0	0	96
HLD	32	0	7	96
XTP	32	192	1
XTP	32	192	6
TAP	33	0	6
TAP	33	96	6
TAP	33	96	7
TAP	33	192	0
TAP	33	192	5
TAP	34	0	1
TAP	34	96	0
TAP	34	96	1
TAP	34	192	2
TAP	34	192	7
HLD	35	0	1	192
HLD	35	0	6	192
TAP	36	0	3
TAP	36	0	4
TAP	36	96	3
TAP	36	96	4
XTP	36	192	2
XTP	36	192	5
TAP	37	0	1
TAP	37	96	0
TAP	37	96	1
TAP	37	192	2
TAP	37	192	7
TAP	38	0	6
TAP	38	96	6
TAP	38	96	7
TAP	38	192	0
TAP	38	192	5
STR	39	0	7
SSR	39	0	7	96	336	3
XTP	40	192	2
XTP	40	192	4
STR	41	0	3
SXR	41	0	3	96	480	0
STR	43	0	7
SXR	43	0	7	96	480	4
STR	45	0	3
SXR	45	0	3	96	480	0
HLD	47	0	0	192
HLD	47	0	7	192
XTP	48	0	0
XTP	48	96	1
BRK	48	192	2
HLD	49	0	5	192
TAP	49	96	4
TAP	49	192	4
HLD	50	0	2	192
TAP	50	96	3
TAP	50	192	3
HLD	51	0	1	192
TAP	51	96	0
TAP	51	192	0
HLD	52	0	7	96
TAP	52	96	0
TAP	52	192	1
TAP	52	192	6
HLD	53	0	5	192
TAP	53	96	4
TAP	53	192	3
HLD	54	0	2	192
TAP	54	96	3
TAP	54	192	4
HLD	55	0	1	192
TAP	55	96	0
TAP	55	192	7
TAP	56	0	0
TAP	56	0	7
TAP	56	96	1
TAP	56	96	6
XTP	56	192	2
XTP	56	192	5
HLD	57	0	1	192
HLD	57	192	2	192
TAP	58	0	3
TAP	58	192	3
TAP	58	192	4
HLD	59	0	6	192
HLD	59	192	5	192
TAP	60	0	4
TAP	60	192	2
TAP	60	192	3
HLD	61	0	1	192
HLD	61	192	2	192
HLD	62	0	3	192
HLD	62	192	4	192
HLD	63	0	5	192
HLD	63	192	6	192
TAP	64	0	7
TAP	64	96	7
TAP	64	192	0
TAP	64	192	6
HLD	65	0	1	192
HLD	65	0	7	192
TAP	66	0	2
TAP	66	96	2
TAP	66	192	2
BRK	66	288	1
BRK	66	288	7
TAP	67	0	0
TAP	67	96	1
TAP	67	192	2
TAP	67	192	3
TAP	67	288	4
TAP	68	0	5
TAP	68	96	5
TAP	68	192	4
TAP	68	192	5
TAP	68	288	3
TAP	68	288	6
TAP	69	0	7
TAP	69	96	6
TAP	69	192	4
TAP	69	192	5
TAP	69	288	3
TAP	69	288	4
TAP	70	0	2
TAP	70	48	2
TAP	70	96	2
TAP	70	192	1
TAP	70	192	4
TAP	71	0	7
TAP	71	96	6
TAP	71	192	4
TAP	71	192	5
TAP	71	288	3
TAP	72	0	2
TAP	72	96	2
TAP	72	192	2
TAP	72	192	3
TAP	72	288	3
TAP	72	288	4
TAP	73	0	4
TAP	73	0	5
TAP	73	96	3
TAP	73	96	6
TAP	73	192	2
TAP	73	192	7
TAP	73	288	0
TAP	73	288	1
TAP	74	0	7
TAP	74	48	7
TAP	74	96	7
XTP	74	192	0
XTP	74	192	6
TAP	75	0	2
TAP	75	96	1
TAP	75	96	3
TAP	75	192	5
TAP	75	288	4
TAP	75	288	6
TAP	76	0	7
TAP	76	48	7
TAP	76	96	7
TAP	76	192	0
TAP	76	192	6
TAP	76	288	0
TAP	76	288	6
TAP	77	0	5
TAP	77	96	4
TAP	77	96	6
TAP	77	192	2
TAP	77	288	1
TAP	77	288	3
TAP	78	0	0
TAP	78	48	0
TAP	78	96	0
TAP	78	192	0
TAP	78	192	7
XTP	78	288	1
XTP	78	288	6
TAP	79	0	2
TAP	79	96	1
TAP	79	96	3
TAP	79	192	5
TAP	79	288	4
TAP	79	288	6
TAP	80	0	1
TAP	80	96	0
TAP	80	96	2
TAP	80	192	6
TAP	80	288	5
TAP	80	288	7
TAP	81	0	0
TAP	81	48	0
TAP	81	96	0
TAP	81	192	7
TAP	81	240	7
TAP	81	288	7
TAP	82	0	0
TAP	82	0	6
TAP	82	96	1
TAP	82	96	5
XTP	82	192	2
XTP	82	192	4
TAP	83	0	3
TAP	83	96	2
TAP	83	192	1
TAP	83	288	0
TAP	84	0	7
TAP	84	96	6
TAP	84	192	5
TAP	84	288	3
TAP	84	288	4
THO	85	0	0	192	C	0	L1
TAP	86	0	0
TAP	86	0	7
TAP	86	96	1
TAP	86	96	6
TAP	86	192	2
TAP	86	192	5
XTP	86	288	3
XTP	86	288	4
TTP	87	0	0	C	1	L1
TTP	87	0	1	B	0	L1
TTP	87	0	6	B	0	L1

T_REC_TAP	193
T_REC_BRK	5
T_REC_XTP	26
T_REC_HLD	38
T_REC_XHO	0
T_REC_STR	8
T_REC_BST	0
T_REC_XST	0
T_REC_TTP	17
T_REC_THO	2
T_REC_SLD	8
T_REC_ALL	297
T_NUM_TAP	244
T_NUM_BRK	5
T_NUM_HLD	40
T_NUM_SLD	8
T_NUM_ALL	297
T_JUDGE_TAP	249
T_JUDGE_HLD	154
T_JUDGE_SLD	8
T_JUDGE_ALL	411
TTM_EACHPAIRS	76
TTM_SCR_TAP	122000
TTM_SCR_BRK	13000
TTM_SCR_HLD	40000
TTM_SCR_SLD	12000
TTM_SCR_ALL	187000
TTM_SCR_S	180950
TTM_SCR_SS	186500
TTM_RAT_ACV	10026

