VERSION	0.00.00	1.03.00
FES_MODE	0
BPM_DEF	175.000	175.000	175.000	175.000
MET_DEF	4	4
RESOLUTION	384
CLK_DEF	384
COMPATIBLE_CODE	MA2

BPM	0	0	175.000
MET	0	0	4	4

TAP	5	0	0
TAP	5	192	0
TAP	6	0	0
TAP	6	192	0
TAP	7	0	7
TAP	7	192	7
TAP	8	0	0
TAP	8	0	7
TAP	9	0	0
TAP	9	96	0
TAP	9	192	0
HLD	10	0	1	192
TAP	11	0	2
TAP	11	96	2
TAP	11	192	2
HLD	12	0	3	192
TAP	13	0	4
TAP	13	96	4
TAP	13	192	4
HLD	14	0	5	192
TAP	15	0	6
TAP	15	96	6
TAP	15	192	6
XTP	16	0	0
XTP	16	0	7
STR	17	0	0
SI_	17	0	0	96	288	3
STR	19	0	4
SI_	19	0	4	96	288	7
STR	21	0	0
SI_	21	0	0	96	288	4
TAP	23	0	5
TAP	23	192	5
TAP	24	0	4
TAP	24	0	5
TAP	25	0	2
TAP	25	0	3
TAP	26	0	4
TAP	26	0	5
TAP	27	0	2
TAP	27	0	3
TAP	28	0	1
TAP	28	96	1
TAP	28	192	1
TAP	29	0	0
TAP	29	0	1
TAP	30	0	6
TAP	30	0	7
HLD	31	0	0	384
HLD	31	0	7	384
TTP	33	0	0	B	0	L1
TTP	33	0	1	B	0	L1
TTP	34	0	3	B	0	L1
TTP	34	0	4	B	0	L1
THO	35	0	0	384	C	0	L1
TTP	37	0	6	B	0	L1
TTP	37	0	7	B	0	L1
TTP	38	0	3	B	0	L1
TTP	38	0	4	B	0	L1
TTP	39	0	0	C	1	L1
TAP	41	0	0
TAP	41	192	0
TAP	42	0	1
TAP	42	96	1
TAP	42	192	1
TAP	43	0	2
TAP	43	192	2
TAP	44	0	3
TAP	44	96	3
TAP	44	192	3
TAP	45	0	4
TAP	45	192	4
TAP	46	0	5
TAP	46	96	5
TAP	46	192	5
TAP	47	0	6
TAP	47	192	6
TAP	48	0	7
TAP	48	96	7
BRK	48	192	7
TAP	49	0	6
TAP	49	192	6
TAP	50	0	5
TAP	50	96	5
TAP	50	192	5
TAP	51	0	4
TAP	51	192	4
TAP	52	0	3
TAP	52	96	3
TAP	52	192	3
TAP	53	0	2
TAP	53	192	2
TAP	54	0	1
TAP	54	96	1
TAP	54	192	1
TAP	55	0	0
TAP	55	192	0
TAP	56	0	0
TAP	56	0	7
TAP	56	96	0
TAP	56	96	7
BRK	56	192	0
BRK	56	192	7
XTP	57	0	0
XTP	57	0	7
XTP	58	0	1
XTP	58	0	6
XTP	59	0	2
XTP	59	0	5
XTP	60	0	3
XTP	60	0	4
TTP	61	0	3	B	0	L1
TTP	61	0	4	B	0	L1
TTP	62	0	2	B	0	L1
TTP	62	0	5	B	0	L1
THO	63	0	0	768	C	1	L1
TAP	67	0	0
TAP	67	96	0
TAP	67	192	0
TAP	68	0	1
TAP	68	96	1
TAP	68	192	1
TAP	69	0	2
TAP	69	96	2
TAP	69	192	3
TAP	69	288	3
TAP	70	0	4
TAP	70	96	4
TAP	70	192	3
TAP	70	192	4
TAP	71	0	5
TAP	71	96	5
TAP	71	192	5
TAP	72	0	6
TAP	72	96	6
TAP	72	192	6
TAP	73	0	7
TAP	73	96	7
TAP	73	192	0
TAP	73	288	0
HLD	74	0	0	192
HLD	74	0	7	192
TAP	75	0	7
TAP	75	96	7
TAP	75	192	7
TAP	76	0	6
TAP	76	96	6
TAP	76	192	6
TAP	76	192	7
TAP	77	0	5
TAP	77	96	5
TAP	77	192	5
TAP	78	0	4
TAP	78	96	4
TAP	78	192	3
TAP	78	192	4
TAP	79	0	3
TAP	79	96	3
TAP	79	192	3
TAP	80	0	2
TAP	80	96	2
TAP	80	192	2
TAP	80	192	3
TAP	81	0	1
TAP	81	96	1
TAP	81	192	1
BRK	82	0	0
BRK	82	0	7
TAP	83	0	0
TAP	83	192	0
HLD	84	0	0	192
HLD	84	0	7	192
TAP	85	0	7
TAP	85	192	7
TAP	86	0	0
TAP	86	96	0
TAP	86	192	7
TAP	86	288	7
XTP	87	0	1
XTP	87	0	6

T_REC_TAP	133
T_REC_BRK	5
T_REC_XTP	12
T_REC_HLD	9
T_REC_XHO	0
T_REC_STR	3
T_REC_BST	0
T_REC_XST	0
T_REC_TTP	13
T_REC_THO	2
T_REC_SLD	3
T_REC_ALL	180
T_NUM_TAP	161
T_NUM_BRK	5
T_NUM_HLD	11
T_NUM_SLD	3
T_NUM_ALL	180
T_JUDGE_TAP	166
T_JUDGE_HLD	68
T_JUDGE_SLD	3
T_JUDGE_ALL	237
TTM_EACHPAIRS	24
TTM_SCR_TAP	80500
TTM_SCR_BRK	13000
TTM_SCR_HLD	11000
TTM_SCR_SLD	4500
TTM_SCR_ALL	109000
TTM_SCR_S	105250
TTM_SCR_SS	108500
TTM_RAT_ACV	10046

