VERSION	0.00.00	1.03.00
FES_MODE	0
BPM_DEF	180.000	180.000	180.000	180.000
MET_DEF	4	4
RESOLUTION	384
CLK_DEF	381
COMPATIBLE_CODE	MA2

BPM	0	0	180.000
MET	0	0	4	4

STR	1	0	6
SUL	1	0	6	96	672	3
STR	3	0	1
SUR	3	0	1	96	672	4
STR	5	0	5
SUR	5	0	5	96	624	7
STR	7	0	0
SF_	7	0	0	96	288	4
XTP	8	144	2
XTP	8	144	6
TAP	9	0	3
HLD	9	0	5	576
TTP	9	96	1	E	0	M1
TTP	9	192	3	E	0	M1
TTP	9	288	0	C	0	M1
TTP	10	0	5	E	0	M1
TTP	10	96	7	E	0	M1
TTP	10	192	0	C	0	M1
XTP	10	288	0
XTP	10	288	7
HLD	11	0	2	576
TAP	11	0	5
TTP	11	96	7	E	0	M1
TTP	11	192	5	E	0	M1
TTP	11	288	0	C	0	M1
TTP	12	0	3	E	0	M1
TTP	12	96	1	E	0	M1
TTP	12	192	0	C	0	M1
XTP	12	288	1
XTP	12	288	6
TTP	13	0	1	E	0	M1
TTP	13	48	2	E	0	M1
TTP	13	96	3	E	0	M1
TTP	13	144	4	E	0	M1
TTP	13	192	5	E	0	M1
TTP	13	240	6	E	0	M1
TTP	13	288	7	E	0	M1
TTP	13	336	0	E	0	M1
TTP	14	0	3	E	0	M1
TTP	14	48	2	E	0	M1
TTP	14	96	1	E	0	M1
TTP	14	144	0	E	0	M1
TTP	14	192	7	E	0	M1
TTP	14	240	6	E	0	M1
TTP	14	288	5	E	0	M1
TTP	14	336	4	E	0	M1
TTP	15	0	0	C	1	M1
TTP	15	0	1	B	0	M1
TTP	15	0	2	B	0	M1
TTP	15	0	5	B	0	M1
TTP	15	0	6	B	0	M1
HLD	16	144	0	96
HLD	16	144	7	96
STR	16	288	1
SSR	16	288	1	96	144	5
STR	16	288	6
SSL	16	288	6	96	144	2
HLD	17	192	1	48
HLD	17	192	3	48
HLD	17	264	2	48
HLD	17	264	4	48
TAP	17	336	3
HLD	17	336	5	96
TAP	18	48	4
HLD	18	96	3	96
TAP	18	96	6
TAP	18	192	5
TAP	18	240	4
TAP	18	240	6
STR	19	0	4
SV_	19	0	4	96	48	2
STR	19	0	5
SV_	19	0	5	96	48	2
HLD	19	192	1	48
HLD	19	192	3	48
HLD	19	264	0	48
HLD	19	264	2	48
HLD	19	336	1	96
TAP	19	336	3
TAP	20	48	2
TAP	20	96	1
TAP	20	96	3
TAP	20	192	0
TAP	20	192	1
STR	20	288	2
SSR	20	288	2	96	144	6
STR	20	288	7
SSL	20	288	7	96	144	3
HLD	21	192	4	48
HLD	21	192	6	48
HLD	21	264	3	48
HLD	21	264	5	48
HLD	21	336	2	96
TAP	21	336	4
TAP	22	48	3
TAP	22	96	1
HLD	22	96	4	96
TAP	22	192	2
TAP	22	240	1
TAP	22	240	3
STR	23	0	2
SV_	23	0	2	96	48	5
STR	23	0	3
SV_	23	0	3	96	48	5
HLD	23	192	4	48
HLD	23	192	6	48
BRK	23	264	3
BRK	23	264	7
TAP	24	0	4
TAP	24	0	5
TAP	24	48	6
TAP	24	96	2
TAP	24	96	3
TAP	24	144	1
TAP	24	192	0
TAP	24	192	7
TAP	24	240	6
STR	24	288	0
SSR	24	288	0	96	144	4
STR	24	288	5
SSL	24	288	5	96	144	1
HLD	25	192	1	48
HLD	25	192	3	48
HLD	25	264	2	48
HLD	25	264	4	48
TAP	25	336	3
HLD	25	336	5	96
TAP	26	48	4
HLD	26	96	3	96
TAP	26	96	6
TAP	26	192	5
TAP	26	240	4
TAP	26	240	6
STR	27	0	5
SUR	27	0	5	96	48	2
STR	27	0	6
SUR	27	0	6	96	48	2
HLD	27	192	1	48
HLD	27	192	3	48
HLD	27	264	0	48
HLD	27	264	2	48
TAP	27	336	1
TAP	27	336	3
TAP	28	48	1
TAP	28	48	6
TAP	28	96	0
TAP	28	120	7
TAP	28	144	1
TAP	28	168	6
STR	28	192	0
SF_	28	192	0	96	48	4
HLD	29	0	2	144
TAP	29	48	3
TAP	29	96	4
HLD	29	144	5	144
TAP	29	192	4
TAP	29	240	3
TAP	29	288	2
HLD	29	336	1	336
TAP	29	336	4
TAP	30	48	3
TAP	30	96	2
TAP	30	144	3
TAP	30	192	4
TAP	30	240	5
TAP	30	288	6
TAP	30	336	2
HLD	30	336	7	336
TAP	31	48	3
TAP	31	96	4
TAP	31	144	5
TAP	31	192	6
TAP	31	240	5
TAP	31	288	4
HLD	31	336	3	96
TAP	31	336	6
TAP	32	48	4
TAP	32	96	2
TAP	32	96	5
TAP	32	144	1
HLD	32	144	6	96
TAP	32	240	0
BRK	32	288	1
BRK	32	288	5
STR	33	0	0
SCR	33	0	0	96	240	5
TTP	33	192	1	B	0	M1
TTP	33	192	2	B	0	M1
TAP	33	336	7
TAP	34	48	7
STR	34	96	7
SCL	34	96	7	96	144	4
TTP	34	192	5	B	0	M1
TTP	34	192	6	B	0	M1
STR	35	0	0
SCR	35	0	0	96	240	5
TTP	35	192	1	B	0	M1
TTP	35	192	2	B	0	M1
TAP	35	336	7
TAP	36	48	7
STR	36	96	7
SCL	36	96	7	96	144	4
TTP	36	192	5	B	0	M1
TTP	36	192	6	B	0	M1
STR	37	0	3
SCL	37	0	3	96	240	6
TTP	37	192	2	B	0	M1
TTP	37	192	3	B	0	M1
TAP	37	336	4
TAP	38	48	4
STR	38	96	4
SCR	38	96	4	96	144	7
TTP	38	192	4	B	0	M1
TTP	38	192	5	B	0	M1
STR	39	0	3
SCL	39	0	3	96	240	6
TTP	39	192	2	B	0	M1
TTP	39	192	3	B	0	M1
HLD	39	336	4	144
TAP	40	96	3
TAP	40	144	3
TAP	40	144	4
XTP	40	288	1
XTP	40	288	6
TAP	41	0	3
TAP	41	0	7
TAP	41	48	7
TAP	41	96	1
STR	41	96	7
SCL	41	96	7	96	144	2
TTP	41	192	5	B	0	M1
TTP	41	192	6	B	0	M1
TAP	41	336	0
TAP	42	48	0
STR	42	96	0
SCR	42	96	0	96	96	3
TTP	42	192	1	B	0	M1
TTP	42	192	2	B	0	M1
TAP	42	288	7
TAP	43	0	4
TAP	43	0	7
TAP	43	48	7
TAP	43	96	1
STR	43	96	7
SCL	43	96	7	96	144	2
TTP	43	192	5	B	0	M1
TTP	43	192	6	B	0	M1
TAP	43	336	0
TAP	44	48	0
STR	44	96	0
SCR	44	96	0	96	96	3
TTP	44	192	1	B	0	M1
TTP	44	192	2	B	0	M1
TAP	44	288	7
TAP	45	0	3
TAP	45	0	7
TAP	45	48	3
STR	45	96	3
SCL	45	96	3	96	144	6
TAP	45	96	5
TTP	45	192	1	B	0	M1
TTP	45	192	2	B	0	M1
TAP	45	336	4
TAP	46	48	4
STR	46	96	4
SCR	46	96	4	96	96	7
TTP	46	192	5	B	0	M1
TTP	46	192	6	B	0	M1
TAP	46	288	3
TAP	47	0	0
TAP	47	0	3
TAP	47	48	3
STR	47	96	3
SCL	47	96	3	96	144	6
TAP	47	96	6
TTP	47	192	1	B	0	M1
TTP	47	192	2	B	0	M1
STR	47	336	5
SCL	47	336	5	96	528	5
SCR	47	336	5	96	528	5
TTP	50	0	0	C	1	M1
STR	50	0	1
SLL	50	0	1	96	480	3
SLR	50	0	1	96	480	7
TTP	52	0	0	C	1	M1
STR	52	0	6
SI_	52	0	6	96	192	4
SLR	52	0	6	96	480	4
HLD	53	192	5	48
HLD	53	264	5	48
TAP	53	336	4
TAP	53	336	6
TTP	54	0	0	C	1	M1
STR	54	0	2
SCL	54	0	2	96	384	6
SCR	54	0	2	96	384	6
HLD	55	192	5	72
TTP	56	0	0	C	1	M1
STR	56	0	6
SCL	56	0	6	96	120	4
SCR	56	0	6	96	360	4
XTP	57	0	6
XTP	57	24	7
XTP	57	48	0
XTP	57	72	1
XTP	57	96	2
XTP	57	120	3
XTP	57	144	4
XTP	57	168	5
XTP	57	192	2
XTP	57	216	1
XTP	57	240	0
XTP	57	264	7
XTP	57	288	6
XTP	57	312	5
XTP	57	336	4
XTP	57	360	3
XTP	58	0	2
BRK	58	0	6
TAP	58	96	4
TAP	58	96	6
TAP	58	144	5
TAP	58	192	3
TAP	58	192	4
TAP	58	240	2
TAP	58	288	1
HLD	58	288	3	96
TAP	59	0	1
TAP	59	48	2
TAP	59	96	3
TAP	59	96	4
TAP	59	144	5
TAP	59	192	4
TAP	59	192	6
TAP	59	240	7
TAP	59	288	0
TAP	59	288	6
TAP	60	0	3
TAP	60	0	4
TAP	60	96	1
TAP	60	96	3
TAP	60	144	2
TAP	60	192	3
TAP	60	192	4
TAP	60	240	5
HLD	60	288	4	96
TAP	60	288	6
TAP	61	0	6
TAP	61	48	5
TAP	61	96	3
TAP	61	96	4
TAP	61	144	2
TAP	61	192	1
TAP	61	192	3
TAP	61	240	0
TAP	61	240	7
BRK	61	288	1
BRK	61	288	6
TAP	62	0	6
TAP	62	0	7
TAP	62	48	6
TAP	62	48	7
TAP	62	96	0
TAP	62	96	5
TAP	62	144	0
TAP	62	144	5
TAP	62	192	1
TAP	62	192	4
TAP	62	240	1
TAP	62	240	4
TAP	62	288	2
TAP	62	288	3
TAP	62	336	2
TAP	62	336	3
TAP	63	0	0
TAP	63	0	1
TAP	63	48	0
TAP	63	48	1
TAP	63	96	2
TAP	63	96	7
TAP	63	144	2
TAP	63	144	7
TAP	63	192	3
TAP	63	192	6
TAP	63	240	3
TAP	63	240	6
TAP	63	288	4
TAP	63	288	5
TAP	63	336	4
TAP	63	336	5
TAP	64	0	6
TAP	64	24	7
TAP	64	48	5
TAP	64	72	0
TAP	64	96	4
TAP	64	120	1
TAP	64	144	3
TAP	64	168	2
TAP	64	192	0
TAP	64	216	1
TAP	64	240	7
TAP	64	264	2
STR	64	288	6
SI_	64	288	6	96	48	2
TAP	64	312	3
TAP	64	336	5
TAP	64	360	4
BRK	65	0	6
STR	65	288	1
SI_	65	288	1	96	48	4
STR	65	288	5
SXL	65	288	5	96	192	3
TAP	66	0	1
TAP	66	0	5
TAP	66	192	0
STR	66	240	0
SCR	66	240	0	96	144	6
XTP	66	336	0
XHO	66	336	5	144
HLD	67	192	0	48
HLD	67	192	4	48
HLD	67	264	2	48
HLD	67	264	6	48
TAP	67	336	3
TAP	67	336	7
HLD	68	0	1	48
HLD	68	0	4	48
HLD	68	72	3	48
HLD	68	72	6	48
TAP	68	144	0
STR	68	144	4
SLR	68	144	4	96	96	3
STR	68	240	3
SLR	68	240	3	96	144	0
TAP	68	288	2
STR	68	336	1
SI_	68	336	1	96	48	5
XTP	69	48	1
BRK	69	144	3
BRK	69	144	7
TAP	69	288	2
TAP	69	312	3
TAP	69	336	2
TAP	70	0	0
TAP	70	0	5
TAP	70	48	1
TAP	70	96	2
TAP	70	144	3
TAP	70	144	7
TAP	70	192	6
TAP	70	240	5
TAP	70	288	1
TAP	70	288	4
TAP	70	336	2
STR	71	0	3
SI_	71	0	3	96	48	7
TAP	71	48	3
STR	71	96	6
SI_	71	96	6	96	48	2
TAP	71	144	6
STR	71	192	0
SI_	71	192	0	96	48	4
TAP	71	240	0
TAP	71	288	7
TAP	71	336	7
TAP	72	0	0
TAP	72	0	1
TAP	72	48	2
TAP	72	96	3
TAP	72	96	4
TAP	72	144	5
TAP	72	192	6
TAP	72	192	7
TAP	72	240	0
TAP	72	288	1
TAP	72	288	7
STR	72	336	2
SI_	72	336	2	96	48	7
STR	72	336	6
SI_	72	336	6	96	48	3
TAP	73	48	2
TAP	73	48	6
BRK	73	144	1
BRK	73	144	5
STR	73	288	2
SXR	73	288	2	96	192	4
STR	73	288	6
SI_	73	288	6	96	48	3
TAP	74	0	2
TAP	74	0	6
TAP	74	192	7
STR	74	240	7
SCL	74	240	7	96	144	1
XHO	74	336	2	144
XTP	74	336	7
HLD	75	192	3	48
HLD	75	192	7	48
HLD	75	264	1	48
HLD	75	264	5	48
TAP	75	336	0
TAP	75	336	4
HLD	76	0	3	48
HLD	76	0	6	48
HLD	76	72	1	48
HLD	76	72	4	48
STR	76	144	3
SLL	76	144	3	96	96	4
TAP	76	144	7
STR	76	240	4
SLL	76	240	4	96	144	7
TAP	76	288	5
STR	76	336	6
SI_	76	336	6	96	48	2
XTP	77	48	6
BRK	77	144	0
BRK	77	144	4
TAP	77	288	5
TAP	77	312	4
TAP	77	336	5
TAP	78	0	2
TAP	78	0	7
TAP	78	48	6
TAP	78	96	5
TAP	78	144	0
TAP	78	144	4
TAP	78	192	1
TAP	78	240	2
TAP	78	288	3
TAP	78	288	6
TAP	78	336	5
STR	79	0	4
SI_	79	0	4	96	48	0
TAP	79	48	4
STR	79	96	1
SI_	79	96	1	96	48	5
TAP	79	144	1
STR	79	192	7
SI_	79	192	7	96	48	3
TAP	79	240	7
TAP	79	288	0
TAP	79	336	0
BRK	80	0	1
BRK	80	0	5
TAP	80	48	2
TAP	80	96	3
TAP	80	96	7
TAP	80	144	6
BRK	80	192	0
BRK	80	192	5
TAP	80	240	1
TAP	80	240	6
TAP	80	288	2
TAP	80	288	7
BST	80	336	0
SF_	80	336	0	96	48	4
BRK	80	336	4
TTP	81	144	0	C	1	M1
TTP	81	144	2	B	0	M1
TTP	81	144	2	E	0	M1
TTP	81	144	3	E	0	M1
TTP	81	144	6	B	0	M1
TTP	81	144	6	E	0	M1
TTP	81	144	7	E	0	M1
XTP	82	288	2
XTP	82	288	5
STR	83	0	3
SSL	83	0	3	96	96	7
TAP	83	0	7
HLD	83	192	5	240
TAP	83	336	4
TAP	84	48	4
TAP	84	96	3
HLD	84	96	6	96
TAP	84	192	5
TAP	84	240	4
TAP	84	240	7
STR	85	0	4
SV_	85	0	4	96	48	2
STR	85	0	6
SUL	85	0	6	96	48	2
HLD	85	192	1	48
HLD	85	192	3	48
HLD	85	264	0	48
HLD	85	264	2	48
HLD	85	336	1	96
TAP	85	336	3
TAP	86	48	2
TAP	86	96	0
TAP	86	96	3
TAP	86	192	1
TAP	86	192	7
TAP	86	288	2
TAP	86	288	6
TAP	87	0	0
STR	87	0	4
SSR	87	0	4	96	96	0
HLD	87	192	2	240
TAP	87	336	3
TAP	88	48	3
HLD	88	96	1	96
TAP	88	96	4
TAP	88	192	2
TAP	88	240	0
TAP	88	240	3
STR	89	0	1
SUR	89	0	1	96	48	5
STR	89	0	3
SV_	89	0	3	96	48	5
HLD	89	192	4	48
HLD	89	192	6	48
BRK	89	264	3
BRK	89	264	7
TAP	90	0	2
TAP	90	0	3
TAP	90	48	1
TAP	90	96	4
TAP	90	96	5
TAP	90	144	6
TAP	90	192	2
TAP	90	192	7
TAP	90	240	1
TAP	90	240	6
TAP	90	288	0
TAP	90	288	5
STR	91	0	3
SSL	91	0	3	96	96	7
TAP	91	0	7
HLD	91	192	5	240
TAP	91	336	4
TAP	92	48	4
TAP	92	96	3
HLD	92	96	6	96
TAP	92	192	5
TAP	92	240	4
TAP	92	240	7
STR	93	0	4
SV_	93	0	4	96	48	2
STR	93	0	6
SLL	93	0	6	96	48	2
HLD	93	192	1	48
HLD	93	192	3	48
HLD	93	264	0	48
HLD	93	264	2	48
TAP	93	336	1
HLD	93	336	3	96
TAP	94	48	1
HLD	94	96	0	96
TAP	94	96	2
TAP	94	192	3
TAP	94	216	4
TAP	94	240	5
TAP	94	264	6
STR	94	288	0
SSR	94	288	0	96	96	4
TAP	94	288	7
TAP	94	312	1
TAP	94	336	2
TAP	94	360	3
TAP	95	0	0
TAP	95	0	4
HLD	95	192	0	240
TAP	96	48	6
TAP	96	96	5
TAP	96	96	7
TAP	96	144	3
TAP	96	192	1
TAP	96	240	0
TAP	96	240	2
TAP	96	288	3
TAP	96	288	4
TAP	96	336	0
TAP	96	336	6
HLD	97	0	1	288
HLD	97	0	5	480
XTP	98	0	1
TAP	98	24	0
TAP	98	48	7
TAP	98	72	6
TAP	98	120	4
TAP	98	144	3
TAP	98	168	2
XTP	98	192	6
TAP	98	216	7
TAP	98	240	0
TAP	98	264	1
TAP	98	288	2
TAP	98	312	3
TAP	98	336	4
TAP	98	360	5
BST	99	0	2
SCL	99	0	2	96	1056	3
HLD	99	0	6	1152

T_REC_TAP	337
T_REC_BRK	21
T_REC_XTP	33
T_REC_HLD	84
T_REC_XHO	2
T_REC_STR	67
T_REC_BST	2
T_REC_XST	0
T_REC_TTP	72
T_REC_THO	0
T_REC_SLD	74
T_REC_ALL	692
T_NUM_TAP	509
T_NUM_BRK	23
T_NUM_HLD	86
T_NUM_SLD	74
T_NUM_ALL	692
T_JUDGE_TAP	532
T_JUDGE_HLD	203
T_JUDGE_SLD	74
T_JUDGE_ALL	809
TTM_EACHPAIRS	166
TTM_SCR_TAP	254500
TTM_SCR_BRK	59800
TTM_SCR_HLD	86000
TTM_SCR_SLD	111000
TTM_SCR_ALL	511300
TTM_SCR_S	493750
TTM_SCR_SS	509000
TTM_RAT_ACV	10045

