VERSION	0.00.00	1.03.00
FES_MODE	0
BPM_DEF	180.000	180.000	180.000	180.000
MET_DEF	4	4
RESOLUTION	384
CLK_DEF	384
COMPATIBLE_CODE	MA2

BPM	0	0	180.000
MET	0	0	4	4

STR	1	0	1
SCR	1	0	1	96	576	7
STR	3	0	6
SCL	3	0	6	96	576	0
STR	5	0	2
SCL	5	0	2	96	576	4
STR	7	0	5
SCR	7	0	5	96	576	3
TAP	9	0	3
TAP	9	0	4
TAP	9	96	5
HLD	9	144	5	96
TAP	9	336	3
TAP	9	336	4
TAP	10	48	2
HLD	10	96	2	96
TAP	10	288	3
TAP	10	288	4
TAP	11	0	4
TAP	11	0	5
TAP	11	96	6
HLD	11	144	6	96
TAP	11	336	0
TAP	11	336	7
TAP	12	48	1
HLD	12	96	1	96
TAP	12	288	0
TAP	12	288	7
TTP	13	0	0	B	0	M1
TTP	13	96	1	B	0	M1
TTP	13	192	2	B	0	M1
TTP	13	288	3	B	0	M1
TTP	14	0	4	B	0	M1
TTP	14	96	5	B	0	M1
TTP	14	192	6	B	0	M1
TTP	14	288	7	B	0	M1
THO	15	0	0	528	C	1	M1
BRK	17	0	0
BRK	17	0	7
XTP	17	192	2
XTP	17	192	3
XTP	17	264	2
XTP	17	264	3
XTP	17	336	1
XTP	17	336	4
TAP	18	48	0
TAP	18	96	0
TAP	18	192	5
TAP	18	240	5
BRK	19	0	1
BRK	19	0	7
XTP	19	192	2
XTP	19	192	3
XTP	19	264	2
XTP	19	264	3
XTP	19	336	1
XTP	19	336	4
TAP	20	48	5
STR	20	96	5
SUR	20	96	5	96	96	2
BRK	21	0	0
BRK	21	0	7
XTP	21	192	4
XTP	21	192	5
XTP	21	264	4
XTP	21	264	5
XTP	21	336	3
XTP	21	336	6
TAP	22	48	7
TAP	22	96	7
TAP	22	192	2
TAP	22	240	2
BRK	23	0	1
BRK	23	0	7
XTP	23	192	4
XTP	23	192	5
XTP	23	264	4
XHO	23	264	5	312
XST	24	0	7
SI_	24	0	7	96	96	3
BRK	24	288	7
BRK	25	0	0
BRK	25	0	6
XTP	25	192	2
XTP	25	192	3
XTP	25	264	1
XTP	25	264	3
XTP	25	336	0
XTP	25	336	3
TAP	26	48	5
TAP	26	96	3
TAP	26	96	5
TAP	26	192	2
TAP	26	240	2
TAP	26	240	4
BRK	27	0	0
BRK	27	0	6
XTP	27	192	4
XTP	27	192	5
XTP	27	264	4
XTP	27	264	6
STR	27	336	4
SSR	27	336	4	96	144	0
XTP	27	336	7
BRK	28	288	1
BRK	28	288	6
TAP	29	0	0
TAP	29	0	7
TAP	29	96	1
HLD	29	144	1	96
TAP	29	336	0
TAP	29	336	7
TAP	30	48	6
HLD	30	96	6	96
TAP	30	288	0
TAP	30	288	7
STR	31	0	1
SXR	31	0	1	96	432	6
STR	31	0	5
SXR	31	0	5	96	432	2
TAP	32	288	1
TAP	32	288	5
HLD	33	0	3	192
TAP	33	0	4
TTP	33	192	0	C	0	M1
HLD	33	336	2	240
TAP	33	336	3
TTP	34	192	0	C	0	M1
TAP	35	0	3
HLD	35	0	5	192
TTP	35	192	0	C	0	M1
TAP	35	336	4
HLD	35	336	6	240
TTP	36	192	0	C	0	M1
HLD	37	0	2	192
TAP	37	0	4
TTP	37	192	0	C	0	M1
TTP	37	192	6	B	0	M1
HLD	37	336	1	240
TAP	37	336	3
TTP	38	192	0	C	0	M1
TTP	38	192	6	B	0	M1
TAP	39	0	4
HLD	39	0	5	192
TTP	39	192	0	C	0	M1
TTP	39	192	1	B	0	M1
TAP	39	336	4
HLD	39	336	6	192
TTP	40	144	0	C	0	M1
TTP	40	144	1	B	0	M1
TAP	41	0	0
TAP	41	0	7
TAP	41	96	6
TAP	41	192	4
TAP	41	192	5
TAP	41	336	0
TAP	41	336	7
TAP	42	48	5
TAP	42	96	5
TTP	42	192	0	C	0	M1
TTP	42	192	1	B	0	M1
TAP	43	0	0
TAP	43	0	7
TAP	43	96	1
TAP	43	192	2
TAP	43	192	3
TAP	43	336	0
TAP	43	336	7
TAP	44	48	2
TAP	44	96	2
TTP	44	192	0	C	0	M1
TTP	44	192	6	B	0	M1
TAP	45	0	0
TAP	45	0	7
TAP	45	96	6
TAP	45	192	4
TAP	45	192	5
TAP	45	288	2
TAP	45	288	7
TAP	45	336	2
TAP	45	336	7
TAP	46	96	5
TTP	46	192	0	C	0	M1
TTP	46	192	1	B	0	M1
TAP	47	0	0
TAP	47	0	7
TAP	47	96	1
TAP	47	192	2
TAP	47	192	3
TAP	47	288	0
TAP	47	288	5
STR	47	336	5
SUR	47	336	5	96	240	2
THO	49	0	0	3264	C	0	M1
XST	50	0	6
SCL	50	0	6	96	480	0
XST	52	0	0
SUR	52	0	0	96	384	7
XTP	53	192	7
XTP	53	264	7
XTP	53	336	7
XST	54	0	7
SLR	54	0	7	96	480	3
XST	56	0	3
SUL	56	0	3	96	480	4
TAP	58	0	5
TAP	58	96	4
TAP	58	96	5
TAP	58	192	3
TAP	58	192	6
TAP	58	288	3
TAP	58	288	5
TAP	59	0	2
TAP	59	96	2
TAP	59	96	3
TAP	59	192	1
TAP	59	192	4
TAP	59	288	2
TAP	59	288	4
TAP	60	0	3
TAP	60	0	5
TAP	60	96	6
TAP	60	192	2
TAP	60	192	4
TAP	60	288	1
TAP	61	0	2
TAP	61	0	3
TAP	61	96	4
TAP	61	96	5
TAP	61	192	1
TAP	61	192	3
TAP	61	288	4
TAP	61	288	6
TAP	62	0	1
TAP	62	48	1
TAP	62	96	3
TAP	62	192	6
TAP	62	240	6
TAP	62	288	4
TAP	63	0	1
TAP	63	48	1
TAP	63	96	3
TAP	63	144	3
TAP	63	192	4
TAP	63	240	4
TAP	63	288	6
TAP	64	0	0
TAP	64	0	7
TAP	64	48	0
TAP	64	48	7
TAP	64	96	1
TAP	64	96	6
TAP	64	144	1
TAP	64	144	6
TAP	64	192	2
TAP	64	192	5
TAP	64	240	2
TAP	64	240	5
TAP	64	288	3
TAP	64	288	4
TTP	65	0	0	C	1	M1
BST	66	0	2
SCL	66	0	2	96	144	7
BST	66	0	6
SLL	66	0	6	96	144	2
BRK	66	336	1
BRK	66	336	5
TAP	67	48	6
TAP	67	48	7
STR	67	96	6
SCL	67	96	6	96	120	1
STR	67	96	7
SUL	67	96	7	96	120	0
XTP	68	0	1
XTP	68	0	3
XTP	68	72	3
XTP	68	72	4
XTP	68	144	4
STR	68	144	6
SI_	68	144	6	96	48	1
HLD	68	336	2	96
TAP	69	48	0
TAP	69	96	0
HLD	69	144	7	96
BRK	69	240	0
BRK	69	288	0
TAP	70	0	4
TAP	70	0	6
TAP	70	96	0
TAP	70	96	7
TAP	70	144	0
TAP	70	144	7
TAP	70	240	2
TAP	70	240	3
TAP	70	288	2
TAP	70	288	3
HLD	70	336	1	96
HLD	71	48	0	96
HLD	71	144	7	96
TAP	71	240	6
TAP	71	288	6
TAP	72	0	3
TAP	72	0	4
TAP	72	96	2
TAP	72	144	3
TAP	72	192	1
TAP	72	240	5
TAP	72	288	4
HLD	72	336	6	96
TAP	73	48	7
HLD	73	144	1	96
TAP	73	240	0
BRK	73	288	0
BRK	73	288	1
BST	74	0	1
SLR	74	0	1	96	144	5
BST	74	0	5
SCR	74	0	5	96	144	0
BRK	74	336	2
BRK	74	336	6
TAP	75	48	0
TAP	75	48	1
STR	75	96	0
SUR	75	96	0	96	120	7
STR	75	96	1
SCR	75	96	1	96	120	6
XTP	76	0	4
XTP	76	0	6
XTP	76	72	3
XTP	76	72	4
STR	76	144	1
SI_	76	144	1	96	48	6
XTP	76	144	3
HLD	76	336	5	96
TAP	77	48	7
TAP	77	96	7
HLD	77	144	0	96
BRK	77	240	7
BRK	77	288	7
TAP	78	0	3
TAP	78	0	4
TAP	78	96	0
TAP	78	96	1
TAP	78	144	0
TAP	78	144	1
TAP	78	240	6
TAP	78	288	6
TAP	78	336	6
TAP	78	336	7
TAP	79	48	4
TAP	79	48	5
TAP	79	96	4
TAP	79	96	5
TAP	79	192	2
TAP	79	240	2
TAP	79	288	1
TAP	79	288	3
XHO	80	0	0	96
XHO	80	0	6	96
XHO	80	192	1	96
XHO	80	192	7	96
XHO	80	336	0	96
XHO	80	336	5	96
XST	81	144	2
SCL	81	144	2	96	432	3
XHO	81	144	7	528
XTP	83	0	3
XTP	83	0	4
XTP	83	72	2
XTP	83	72	5
XTP	83	144	1
XTP	83	144	6
STR	83	192	1
SLR	83	192	1	96	144	7
STR	83	192	6
SLL	83	192	6	96	144	0
STR	84	96	1
SI_	84	96	1	96	48	3
STR	84	96	6
SI_	84	96	6	96	48	4
BRK	85	0	2
BRK	85	0	6
XTP	85	192	4
XTP	85	192	5
XTP	85	264	3
XTP	85	264	6
XST	85	336	2
SLR	85	336	2	96	96	0
XTP	85	336	7
TTP	86	192	6	B	0	M1
TTP	86	288	0	C	0	M1
XTP	87	0	0
XTP	87	0	7
XTP	87	72	1
XTP	87	72	6
XTP	87	144	2
XTP	87	144	5
STR	87	192	2
SLL	87	192	2	96	144	4
STR	87	192	5
SLR	87	192	5	96	144	3
STR	88	96	2
SI_	88	96	2	96	48	0
STR	88	96	5
SI_	88	96	5	96	48	7
BRK	89	0	1
BRK	89	0	5
XTP	89	192	2
XTP	89	192	3
XTP	89	264	2
XTP	89	264	3
TTP	90	0	6	B	0	M1
TTP	90	0	7	B	0	M1
TTP	90	0	7	E	0	M1
TTP	90	96	0	B	0	M1
TTP	90	96	1	B	0	M1
TTP	90	96	1	E	0	M1
TTP	90	192	0	C	1	M1
XTP	91	0	6
XTP	91	0	7
XTP	91	72	0
XTP	91	72	5
XTP	91	144	1
XTP	91	144	4
STR	91	192	1
SLL	91	192	1	96	144	3
STR	91	192	4
SLR	91	192	4	96	144	2
STR	92	96	1
SI_	92	96	1	96	48	7
STR	92	96	4
SI_	92	96	4	96	48	6
BRK	93	0	1
BRK	93	0	5
XTP	93	192	0
XTP	93	192	1
XTP	93	264	2
XTP	93	264	7
XTP	93	336	3
XST	93	336	6
SLR	93	336	6	96	144	4
TAP	95	0	0
HLD	95	0	1	192
TTP	95	192	0	C	0	M1
HLD	96	0	6	192
TAP	96	0	7
TTP	96	192	0	C	0	M1
BST	97	0	1
SCR	97	0	1	96	768	6
BRK	97	0	6

T_REC_TAP	188
T_REC_BRK	32
T_REC_XTP	77
T_REC_HLD	25
T_REC_XHO	8
T_REC_STR	27
T_REC_BST	5
T_REC_XST	8
T_REC_TTP	38
T_REC_THO	2
T_REC_SLD	40
T_REC_ALL	450
T_NUM_TAP	338
T_NUM_BRK	37
T_NUM_HLD	35
T_NUM_SLD	40
T_NUM_ALL	450
T_JUDGE_TAP	375
T_JUDGE_HLD	182
T_JUDGE_SLD	40
T_JUDGE_ALL	597
TTM_EACHPAIRS	138
TTM_SCR_TAP	169000
TTM_SCR_BRK	96200
TTM_SCR_HLD	35000
TTM_SCR_SLD	60000
TTM_SCR_ALL	360200
TTM_SCR_S	345850
TTM_SCR_SS	356500
TTM_RAT_ACV	10103

