VERSION	0.00.00	1.03.00
FES_MODE	0
BPM_DEF	180.000	180.000	180.000	180.000
MET_DEF	4	4
RESOLUTION	384
CLK_DEF	384
COMPATIBLE_CODE	MA2

BPM	0	0	180.000
MET	0	0	4	4

HLD	1	0	2	768
HLD	3	0	3	768
HLD	5	0	4	768
HLD	7	0	5	576
TAP	8	192	4
HLD	9	0	3	192
TAP	9	192	4
TAP	10	0	2
TAP	10	96	2
TAP	10	192	3
HLD	11	0	3	192
TAP	11	192	4
TAP	12	0	5
TAP	12	96	5
TAP	12	192	4
TAP	13	0	2
TAP	13	96	2
TAP	13	192	1
TAP	14	0	7
TAP	14	96	7
TAP	14	192	0
HLD	15	0	1	528
HLD	15	0	6	528
BST	17	0	2
SCR	17	0	2	96	288	5
XTP	18	192	6
STR	19	0	7
SI_	19	0	7	96	288	3
TAP	20	192	2
TAP	20	192	4
BST	21	0	1
SCR	21	0	1	96	288	4
TAP	22	192	5
STR	23	0	6
SI_	23	0	6	96	288	1
SI_	23	0	6	96	288	3
TAP	24	192	2
TAP	24	288	2
BST	25	0	1
SCR	25	0	1	96	288	5
TAP	26	192	6
TAP	26	192	7
STR	27	0	5
SCR	27	0	5	96	288	1
XTP	28	192	2
XTP	28	192	3
STR	29	0	3
SI_	29	0	3	96	288	0
STR	29	0	4
SI_	29	0	4	96	288	7
TAP	30	192	1
TAP	30	192	6
STR	31	0	0
SI_	31	0	0	96	288	4
STR	31	0	7
SI_	31	0	7	96	288	3
XTP	32	192	2
XTP	32	192	5
HLD	33	0	6	192
HLD	33	192	5	192
TAP	34	0	4
TAP	34	192	3
TAP	34	192	4
HLD	35	0	1	192
HLD	35	192	2	192
TAP	36	0	3
TAP	36	192	1
TAP	36	192	4
HLD	37	0	2	192
HLD	37	192	1	192
TAP	38	0	0
TAP	38	192	0
TAP	38	192	7
HLD	39	0	5	192
HLD	39	192	6	192
TAP	40	0	7
XTP	40	192	0
XTP	40	192	6
HLD	41	0	1	192
HLD	41	192	2	192
HLD	42	0	3	192
HLD	42	192	4	192
HLD	43	0	5	192
HLD	43	192	6	192
TAP	44	0	7
TAP	44	192	0
TAP	44	192	7
HLD	45	0	1	192
HLD	45	0	3	192
HLD	46	0	4	192
HLD	46	0	5	192
THO	47	0	0	336	C	1	L1
TTP	50	0	0	C	1	L1
TTP	50	0	5	B	0	L1
TTP	50	0	6	B	0	L1
TTP	52	0	0	C	1	L1
TTP	52	0	3	B	0	L1
TTP	52	0	4	B	0	L1
TTP	54	0	0	C	1	L1
TTP	54	0	1	B	0	L1
TTP	54	0	2	B	0	L1
TTP	56	0	0	B	0	L1
TTP	56	0	0	C	1	L1
TTP	56	0	7	B	0	L1
XTP	57	192	0
XTP	57	192	7
TAP	58	0	1
TAP	58	96	1
HLD	58	192	2	192
TAP	59	0	3
TAP	59	192	2
TAP	59	192	4
TAP	60	0	5
TAP	60	96	5
HLD	60	192	6	192
TAP	61	0	7
TAP	61	192	0
TAP	61	192	6
TAP	62	0	7
TAP	62	96	7
TAP	62	192	6
TAP	62	288	6
TAP	63	0	5
TAP	63	96	5
TAP	63	192	3
TAP	63	192	4
TAP	64	0	1
TAP	64	0	3
TAP	64	96	1
TAP	64	96	3
TAP	64	192	4
TAP	64	192	6
TAP	64	288	4
TAP	64	288	6
BRK	65	0	0
BRK	65	0	7
HLD	66	0	1	192
TAP	66	0	6
HLD	66	192	2	192
TAP	67	0	3
TAP	67	96	3
TAP	67	192	4
TAP	67	288	5
HLD	68	0	6	96
TAP	68	96	7
HLD	68	192	1	96
TAP	68	288	0
TAP	69	0	0
TAP	69	0	7
TAP	69	96	1
TAP	69	96	6
XTP	69	192	2
XTP	69	192	5
TAP	70	0	0
TAP	70	96	1
TAP	70	192	2
TAP	70	192	3
TAP	70	288	2
TAP	70	288	3
TAP	71	0	4
TAP	71	96	5
TAP	71	192	3
TAP	71	192	6
TAP	71	288	3
TAP	71	288	6
TAP	72	0	7
TAP	72	96	0
TAP	72	192	1
TAP	72	192	3
TAP	72	288	1
TAP	72	288	3
HLD	73	0	3	96
HLD	73	0	4	96
XTP	73	192	2
XTP	73	192	5
TAP	74	0	1
HLD	74	0	6	192
HLD	74	192	5	192
TAP	75	0	4
TAP	75	96	4
TAP	75	192	3
TAP	75	288	2
HLD	76	0	1	96
TAP	76	96	0
HLD	76	192	6	96
TAP	76	288	7
TAP	77	0	0
TAP	77	0	7
TAP	77	96	1
TAP	77	96	6
XTP	77	192	2
XTP	77	192	5
TAP	78	0	3
TAP	78	96	2
TAP	78	192	0
TAP	78	192	1
TAP	78	288	0
TAP	78	288	1
TAP	79	0	6
TAP	79	0	7
TAP	79	96	0
TAP	79	96	5
XTP	79	192	1
XTP	79	192	4
THO	80	0	0	528	C	1	L1
BST	83	0	0
SI_	83	0	0	96	288	3
BST	83	0	6
SI_	83	0	6	96	288	3
XTP	84	192	2
XTP	84	192	4
STR	85	0	3
SI_	85	0	3	96	288	0
STR	85	0	5
SI_	85	0	5	96	288	0
XTP	86	192	1
XTP	86	192	7
BST	87	0	0
SI_	87	0	0	96	288	3
SI_	87	0	0	96	288	5
XTP	88	192	4
HLD	89	0	4	96
HLD	89	0	5	96
TAP	89	192	3
TAP	89	192	6
HLD	90	0	2	96
HLD	90	0	3	96
XTP	90	192	1
XTP	90	192	4
BST	91	0	0
SI_	91	0	0	96	288	4
BST	91	0	1
SCR	91	0	1	96	288	4
XTP	92	192	5
XTP	92	288	5
STR	93	0	6
SCL	93	0	6	96	288	3
STR	93	0	7
SI_	93	0	7	96	288	3
XTP	94	192	2
XTP	94	192	4
STR	95	0	3
SCL	95	0	3	96	480	4
HLD	97	0	3	768
THO	98	0	0	384	C	0	L1

T_REC_TAP	115
T_REC_BRK	2
T_REC_XTP	28
T_REC_HLD	43
T_REC_XHO	0
T_REC_STR	12
T_REC_BST	8
T_REC_XST	0
T_REC_TTP	12
T_REC_THO	3
T_REC_SLD	22
T_REC_ALL	245
T_NUM_TAP	167
T_NUM_BRK	10
T_NUM_HLD	46
T_NUM_SLD	22
T_NUM_ALL	245
T_JUDGE_TAP	177
T_JUDGE_HLD	248
T_JUDGE_SLD	22
T_JUDGE_ALL	447
TTM_EACHPAIRS	56
TTM_SCR_TAP	83500
TTM_SCR_BRK	26000
TTM_SCR_HLD	46000
TTM_SCR_SLD	33000
TTM_SCR_ALL	188500
TTM_SCR_S	181900
TTM_SCR_SS	187500
TTM_RAT_ACV	10053

