VERSION	0.00.00	1.03.00
FES_MODE	0
BPM_DEF	180.000	180.000	180.000	180.000
MET_DEF	4	4
RESOLUTION	384
CLK_DEF	384
COMPATIBLE_CODE	MA2

BPM	0	0	180.000
MET	0	0	4	4

HLD	9	0	0	384
HLD	11	0	7	384
TAP	13	0	0
TAP	13	192	0
TAP	14	0	7
TAP	14	192	7
BRK	15	0	0
BRK	15	0	7
TTP	17	0	1	B	0	L1
TTP	18	0	2	B	0	L1
TTP	19	0	3	B	0	L1
TTP	20	0	2	B	0	L1
TTP	20	0	4	B	0	L1
TTP	21	0	5	B	0	L1
TTP	22	0	6	B	0	L1
TTP	23	0	7	B	0	L1
TTP	24	0	0	B	0	L1
TTP	24	0	6	B	0	L1
TTP	25	0	7	B	0	L1
TTP	26	0	6	B	0	L1
TTP	27	0	5	B	0	L1
TTP	28	0	4	B	0	L1
TTP	28	0	6	B	0	L1
TTP	29	0	2	B	0	L1
TTP	29	0	3	B	0	L1
TTP	30	0	4	B	0	L1
TTP	30	0	5	B	0	L1
THO	31	0	0	384	C	1	L1
TAP	33	0	0
TAP	34	0	1
TAP	35	0	2
TAP	36	0	3
TAP	37	0	4
TAP	38	0	5
TAP	39	0	6
TAP	40	0	0
TAP	40	0	7
TAP	41	0	6
TAP	41	192	6
TAP	42	0	6
TAP	43	0	5
TAP	43	192	5
TAP	44	0	5
TAP	45	0	4
TAP	45	192	4
TAP	46	0	3
TAP	46	192	3
HLD	47	0	3	384
HLD	47	0	4	384
XST	50	0	4
SI_	50	0	4	96	288	1
XST	50	0	5
SI_	50	0	5	96	288	0
XST	52	0	2
SI_	52	0	2	96	288	7
XST	52	0	3
SI_	52	0	3	96	288	6
XST	54	0	0
SI_	54	0	0	96	288	5
XST	54	0	1
SI_	54	0	1	96	288	4
XST	56	0	6
SI_	56	0	6	96	288	3
XST	56	0	7
SI_	56	0	7	96	288	2
TAP	58	0	2
TAP	58	192	2
TAP	59	0	3
TAP	59	192	3
TAP	60	0	4
TAP	60	192	4
TAP	61	0	5
TAP	61	192	5
TAP	62	0	6
TAP	62	96	6
TAP	62	192	6
TAP	63	0	7
TAP	63	96	7
TAP	63	192	7
TAP	64	0	0
TAP	64	96	0
TAP	64	192	0
BRK	65	0	1
HLD	66	0	0	192
TAP	67	0	0
TAP	67	192	0
TAP	67	192	1
HLD	68	0	7	192
TAP	69	0	7
TAP	69	192	6
TAP	69	192	7
TAP	70	0	6
TAP	70	96	6
TAP	70	192	6
TAP	71	0	5
TAP	71	96	5
TAP	71	192	5
TAP	72	0	4
TAP	72	96	4
TAP	72	192	4
TAP	73	0	3
TAP	73	96	3
TAP	73	192	3
HLD	74	0	4	192
TAP	75	0	4
TAP	75	192	4
TAP	75	192	5
HLD	76	0	3	192
TAP	77	0	3
TAP	77	192	2
TAP	77	192	3
TAP	78	0	1
TAP	78	96	1
TAP	78	192	1
TAP	79	0	0
TAP	79	96	0
TAP	79	192	0
TAP	80	0	7
TAP	80	96	7
TAP	80	192	7
TAP	81	0	0
TAP	81	96	0
HLD	81	192	0	384
HLD	81	192	7	384
TTP	83	0	6	B	0	L1
TTP	84	0	5	B	0	L1
TTP	85	0	4	B	0	L1
TTP	86	0	3	B	0	L1
TTP	86	0	5	B	0	L1
TTP	87	0	2	B	0	L1
TTP	88	0	1	B	0	L1
TTP	89	0	0	B	0	L1
TTP	90	0	1	B	0	L1
TTP	90	0	7	B	0	L1
TTP	91	0	0	B	0	L1
TTP	92	0	1	B	0	L1
TTP	93	0	2	B	0	L1
TTP	94	0	1	B	0	L1
TTP	94	0	3	B	0	L1
TTP	95	0	4	B	0	L1
TTP	95	0	5	B	0	L1
TTP	96	0	2	B	0	L1
TTP	96	0	3	B	0	L1
STR	97	0	3
SI_	97	0	3	96	288	0
STR	97	0	4
SI_	97	0	4	96	288	7
XTP	99	0	1
XTP	99	0	6

T_REC_TAP	75
T_REC_BRK	3
T_REC_XTP	2
T_REC_HLD	10
T_REC_XHO	0
T_REC_STR	2
T_REC_BST	0
T_REC_XST	8
T_REC_TTP	38
T_REC_THO	1
T_REC_SLD	10
T_REC_ALL	149
T_NUM_TAP	125
T_NUM_BRK	3
T_NUM_HLD	11
T_NUM_SLD	10
T_NUM_ALL	149
T_JUDGE_TAP	128
T_JUDGE_HLD	72
T_JUDGE_SLD	10
T_JUDGE_ALL	210
TTM_EACHPAIRS	14
TTM_SCR_TAP	62500
TTM_SCR_BRK	7800
TTM_SCR_HLD	11000
TTM_SCR_SLD	15000
TTM_SCR_ALL	96300
TTM_SCR_S	93150
TTM_SCR_SS	96000
TTM_RAT_ACV	10031

