VERSION	0.00.00	1.03.00
FES_MODE	0
BPM_DEF	175.000	175.000	175.000	175.000
MET_DEF	4	4
RESOLUTION	384
CLK_DEF	381
COMPATIBLE_CODE	MA2

BPM	0	0	175.000
MET	0	0	4	4

STR	2	0	0
SCR	2	0	0	96	1344	7
TAP	2	0	7
HLD	3	0	0	288
HLD	4	0	1	288
HLD	5	0	2	288
TAP	6	0	0
STR	6	0	7
SCL	6	0	7	96	1344	0
HLD	7	0	7	288
HLD	8	0	6	288
HLD	9	0	5	288
HLD	10	0	2	336
TAP	10	96	4
TAP	10	144	4
TAP	10	240	3
HLD	10	336	5	432
TAP	11	48	3
TAP	11	144	4
TAP	11	192	4
TAP	11	288	0
HLD	12	0	1	336
TAP	12	96	4
TAP	12	144	4
TAP	12	240	3
HLD	12	336	6	432
TAP	13	48	3
TAP	13	96	3
TAP	13	144	4
TAP	13	192	4
TAP	13	288	0
HLD	14	0	1	336
TAP	14	96	7
TAP	14	144	7
TAP	14	240	0
HLD	14	336	6	432
TAP	15	48	0
TAP	15	144	7
TAP	15	192	7
TAP	15	288	3
HLD	16	0	2	336
TAP	16	96	7
TAP	16	144	7
TAP	16	240	0
HLD	16	336	5	336
TAP	17	48	0
TAP	17	96	0
TAP	17	144	7
TAP	17	192	7
TAP	17	288	2
TAP	18	0	1
TAP	18	0	3
TAP	18	72	2
TAP	18	72	4
TAP	18	144	3
TAP	18	144	5
TAP	18	216	4
TAP	18	216	6
BRK	18	288	0
BRK	18	288	7
TAP	19	0	4
TAP	19	0	6
TAP	19	72	3
TAP	19	72	5
TAP	19	144	2
TAP	19	144	4
TAP	19	216	1
TAP	19	216	3
BRK	19	288	0
BRK	19	288	7
TAP	20	0	1
TAP	20	0	4
TAP	20	72	2
TAP	20	72	5
TAP	20	144	3
TAP	20	144	6
TAP	20	216	4
TAP	20	216	7
BRK	20	288	0
BRK	20	288	1
TAP	21	0	3
TAP	21	0	6
TAP	21	72	2
TAP	21	72	5
TAP	21	144	1
TAP	21	144	4
TAP	21	216	0
TAP	21	216	3
BRK	21	288	6
BRK	21	288	7
TAP	22	0	4
STR	22	0	5
SI_	22	0	5	96	48	0
STR	22	192	2
SI_	22	192	2	96	48	7
TAP	22	192	3
TTP	23	0	4	B	0	M1
TTP	23	0	5	B	0	M1
TTP	23	0	5	E	0	M1
TTP	23	96	0	B	0	M1
TTP	23	96	1	B	0	M1
TTP	23	96	1	E	0	M1
XTP	23	192	7
XTP	23	216	6
XTP	23	240	5
XTP	23	264	4
XTP	23	288	0
XTP	23	312	1
XTP	23	336	2
XTP	23	360	3
THO	24	0	0	576	C	0	M1
TTP	25	288	1	B	0	M1
TTP	25	288	2	B	0	M1
TTP	25	288	2	E	0	M1
TTP	25	288	5	B	0	M1
TTP	25	288	6	B	0	M1
TTP	25	288	6	E	0	M1
STR	26	0	3
SI_	26	0	3	96	48	0
STR	26	0	7
SI_	26	0	7	96	48	4
TAP	26	192	5
STR	26	240	6
SI_	26	240	6	96	48	3
TAP	26	288	0
TAP	26	288	7
TAP	26	336	6
TAP	27	0	2
STR	27	48	1
SI_	27	48	1	96	48	4
TAP	27	96	0
TAP	27	96	7
TAP	27	144	1
TAP	27	192	5
STR	27	240	6
SI_	27	240	6	96	48	3
STR	27	288	0
SSL	27	288	0	96	96	4
TAP	27	288	7
TAP	27	336	6
TAP	28	192	1
TAP	28	192	5
TAP	28	240	0
TAP	28	240	4
STR	28	288	3
SLR	28	288	3	96	120	2
STR	28	288	7
SLR	28	288	7	96	120	6
STR	29	192	1
SI_	29	192	1	96	48	4
STR	29	192	5
SI_	29	192	5	96	48	0
TAP	29	288	1
TAP	29	288	5
BRK	30	0	2
BRK	30	0	6
TAP	30	96	4
TAP	30	96	5
TAP	30	192	2
STR	30	240	1
SI_	30	240	1	96	48	4
TAP	30	288	0
TAP	30	288	7
TAP	30	336	1
TAP	31	0	5
STR	31	48	6
SI_	31	48	6	96	48	3
TAP	31	96	0
TAP	31	96	7
TAP	31	144	6
TAP	31	192	2
STR	31	240	1
SI_	31	240	1	96	48	4
TAP	31	288	0
TAP	31	288	7
TAP	31	336	1
HLD	32	0	6	72
HLD	32	72	7	72
HLD	32	144	0	72
HLD	32	216	1	72
TAP	32	288	4
TAP	32	336	4
HLD	33	0	5	72
HLD	33	72	7	72
HLD	33	144	0	72
HLD	33	216	2	72
TAP	33	288	5
TAP	33	336	5
STR	34	0	2
SI_	34	0	2	96	48	5
STR	34	0	6
SI_	34	0	6	96	48	1
TAP	34	192	6
STR	34	240	7
SI_	34	240	7	96	48	4
TAP	34	288	0
TAP	34	288	1
TAP	34	336	7
TAP	35	0	1
STR	35	48	0
SI_	35	48	0	96	48	3
TAP	35	96	6
TAP	35	96	7
TAP	35	144	0
TAP	35	192	6
STR	35	240	7
SI_	35	240	7	96	48	4
TAP	35	288	0
TAP	35	288	1
TAP	35	336	7
HLD	36	0	3	72
HLD	36	72	5	72
HLD	36	144	1	48
BRK	36	192	0
STR	36	288	2
SLR	36	288	2	96	120	1
STR	36	288	6
SLL	36	288	6	96	120	7
STR	37	192	2
SI_	37	192	2	96	48	7
STR	37	192	6
SI_	37	192	6	96	48	3
TAP	37	288	2
TAP	37	288	6
BRK	38	0	1
BRK	38	0	5
TAP	38	96	0
TAP	38	96	4
TAP	38	192	6
STR	38	240	7
SI_	38	240	7	96	48	4
TAP	38	288	0
TAP	38	288	1
TAP	38	336	7
TAP	39	0	1
STR	39	48	0
SI_	39	48	0	96	48	3
STR	39	96	6
SCR	39	96	6	96	144	5
TAP	39	96	7
TAP	39	144	0
HLD	40	0	1	72
HLD	40	72	0	72
HLD	40	144	7	72
HLD	40	216	6	72
TAP	40	288	3
TAP	40	336	3
HLD	41	0	2	72
HLD	41	72	0	72
HLD	41	144	7	72
HLD	41	216	5	72
TAP	41	288	2
TAP	41	336	2
STR	42	0	3
SI_	42	0	3	96	48	0
STR	42	0	4
SI_	42	0	4	96	48	7
TAP	42	192	1
TAP	42	192	6
TTP	42	288	6	B	0	M1
TTP	42	288	6	E	0	M1
TTP	42	288	7	E	0	M1
TTP	42	336	0	B	0	M1
TTP	42	336	1	B	0	M1
TTP	42	336	1	E	0	M1
TTP	43	0	4	B	0	M1
TTP	43	0	5	B	0	M1
TTP	43	0	5	E	0	M1
TTP	43	48	2	B	0	M1
TTP	43	48	2	E	0	M1
TTP	43	48	3	E	0	M1
TTP	43	96	6	B	0	M1
TTP	43	96	7	B	0	M1
TTP	43	96	7	E	0	M1
TTP	43	144	0	C	0	M1
TTP	43	144	3	B	0	M1
TTP	43	144	4	E	0	M1
STR	43	192	7
SUL	43	192	7	96	48	3
SUR	43	192	7	96	48	3
TAP	44	0	5
TAP	44	48	5
TAP	44	96	6
TAP	44	96	7
TAP	44	192	3
TAP	44	192	4
TTP	44	288	7	E	0	M1
TTP	44	312	1	B	0	M1
TTP	44	336	5	B	0	M1
TTP	44	360	3	E	0	M1
TTP	45	0	7	B	0	M1
TTP	45	24	2	E	0	M1
TTP	45	48	6	E	0	M1
TTP	45	72	3	B	0	M1
TTP	45	96	6	B	0	M1
TTP	45	120	1	E	0	M1
TTP	45	144	5	E	0	M1
TTP	45	168	2	B	0	M1
THO	45	192	0	96	C	0	M1
BRK	45	288	0
BRK	46	0	1
BRK	46	0	6
HLD	46	96	5	96
TAP	46	192	4
TTP	46	288	1	B	0	M1
TTP	46	288	1	E	0	M1
TTP	46	288	2	E	0	M1
TTP	46	336	6	B	0	M1
TTP	46	336	7	B	0	M1
TTP	46	336	7	E	0	M1
TTP	47	0	2	B	0	M1
TTP	47	0	3	B	0	M1
TTP	47	0	3	E	0	M1
TTP	47	48	5	B	0	M1
TTP	47	48	5	E	0	M1
TTP	47	48	6	E	0	M1
TTP	47	96	0	B	0	M1
TTP	47	96	1	B	0	M1
TTP	47	96	1	E	0	M1
TTP	47	144	0	C	0	M1
TTP	47	144	4	B	0	M1
TTP	47	144	4	E	0	M1
STR	47	192	0
SUL	47	192	0	96	48	4
SUR	47	192	0	96	48	4
HLD	48	0	5	72
HLD	48	72	7	72
HLD	48	144	0	72
HLD	48	216	2	72
TAP	48	288	3
TAP	48	336	3
HLD	49	0	4	72
HLD	49	72	7	72
HLD	49	144	0	72
HLD	49	216	3	72
TAP	49	288	4
TAP	49	336	4
BRK	50	0	1
BRK	50	0	6
TTP	54	0	4	B	0	M1
TTP	54	96	5	B	0	M1
TTP	54	192	6	B	0	M1
TTP	54	288	7	B	0	M1
TTP	55	0	0	B	0	M1
TTP	55	96	1	B	0	M1
TTP	55	192	2	B	0	M1
TTP	55	288	3	B	0	M1
TTP	56	0	4	E	0	M1
TTP	56	96	3	E	0	M1
TTP	56	96	5	E	0	M1
TTP	56	192	2	E	0	M1
TTP	56	192	6	E	0	M1
TTP	56	288	1	E	0	M1
TTP	56	288	7	E	0	M1
THO	57	0	0	288	C	1	M1
STR	58	0	1
SI_	58	0	1	96	48	3
HLD	58	0	7	288
STR	58	192	4
SI_	58	192	4	96	48	0
HLD	59	0	0	288
STR	59	0	6
SI_	59	0	6	96	48	4
STR	59	192	3
SI_	59	192	3	96	48	7
HLD	60	0	6	288
STR	60	0	7
SI_	60	0	7	96	48	5
STR	60	192	4
SI_	60	192	4	96	48	0
STR	61	0	0
SI_	61	0	0	96	48	2
HLD	61	0	1	288
STR	61	192	3
SI_	61	192	3	96	48	7
STR	62	0	4
SI_	62	0	4	96	48	7
STR	62	0	5
SI_	62	0	5	96	48	7
STR	62	192	2
SI_	62	192	2	96	48	0
STR	62	192	3
SI_	62	192	3	96	48	0
STR	63	0	4
SI_	63	0	4	96	48	0
STR	63	0	5
SI_	63	0	5	96	48	0
STR	63	192	2
SI_	63	192	2	96	48	7
STR	63	192	3
SI_	63	192	3	96	48	7
TAP	64	0	4
TAP	64	0	6
TAP	64	96	1
TAP	64	96	3
TAP	64	192	4
TAP	64	216	3
TAP	64	240	4
TAP	64	264	3
TAP	64	288	5
TAP	64	312	2
TAP	64	336	5
HLD	65	0	1	96
HLD	65	0	6	96
BST	65	192	3
SI_	65	192	3	96	48	7
BST	65	192	4
SI_	65	192	4	96	48	0
BRK	65	288	3
BRK	65	288	4
BST	66	0	1
SI_	66	0	1	96	48	4
BRK	66	0	6
STR	66	96	0
SI_	66	96	0	96	48	5
TAP	66	144	0
STR	66	192	1
SI_	66	192	1	96	48	4
TAP	66	240	1
STR	66	288	0
SI_	66	288	0	96	48	5
TAP	66	336	0
TAP	67	0	1
TAP	67	48	1
TAP	67	96	0
TAP	67	96	2
TAP	67	144	0
TAP	67	144	2
TAP	67	192	3
TAP	67	192	7
TAP	67	240	3
TAP	67	240	7
TAP	67	288	1
TAP	67	288	5
STR	68	0	2
SI_	68	0	2	96	48	7
TAP	68	0	3
TAP	68	48	1
TAP	68	48	4
TAP	68	96	2
TAP	68	96	3
TAP	68	192	4
STR	68	192	5
SI_	68	192	5	96	48	0
TAP	68	240	3
TAP	68	240	6
TAP	68	288	4
TAP	68	288	5
TAP	69	0	3
TAP	69	24	4
TAP	69	48	3
TAP	69	72	4
STR	69	96	3
SUL	69	96	3	96	72	4
TAP	69	144	2
TAP	69	144	5
STR	69	192	7
SI_	69	192	7	96	48	3
BRK	69	288	7
BRK	70	0	1
BST	70	0	6
SI_	70	0	6	96	48	3
STR	70	96	7
SI_	70	96	7	96	48	2
TAP	70	144	7
STR	70	192	6
SI_	70	192	6	96	48	3
TAP	70	240	6
STR	70	288	7
SI_	70	288	7	96	48	2
TAP	70	336	7
TAP	71	0	6
TAP	71	48	6
TAP	71	96	5
TAP	71	96	7
TAP	71	144	5
TAP	71	144	7
TAP	71	192	0
TAP	71	192	4
TAP	71	240	0
TAP	71	240	4
TAP	71	288	2
TAP	71	288	6
TAP	72	0	0
TAP	72	0	1
TAP	72	48	5
TAP	72	72	5
TAP	72	120	2
TAP	72	144	2
TAP	72	192	7
TAP	72	216	7
TAP	72	288	2
TAP	72	288	3
TAP	72	336	4
TAP	72	336	5
TAP	73	0	6
TAP	73	0	7
TAP	73	48	2
TAP	73	72	2
TAP	73	120	5
TAP	73	144	5
TAP	73	192	1
TAP	73	216	1
STR	73	288	7
SF_	73	288	7	96	48	3
TAP	73	336	0
TAP	73	336	6
STR	74	96	1
SI_	74	96	1	96	48	4
TAP	74	144	1
STR	74	192	7
SCL	74	192	7	96	48	4
TAP	74	240	7
STR	74	288	0
SI_	74	288	0	96	48	4
TAP	74	336	0
TAP	75	0	6
TAP	75	48	6
TAP	75	96	5
TAP	75	96	7
TAP	75	144	5
TAP	75	144	7
TAP	75	192	0
TAP	75	192	4
TAP	75	240	0
TAP	75	240	4
TAP	75	288	2
TAP	75	288	6
TAP	76	0	4
STR	76	0	5
SI_	76	0	5	96	48	0
TAP	76	48	6
TAP	76	48	7
TAP	76	96	4
TAP	76	96	5
STR	76	192	2
SI_	76	192	2	96	48	7
TAP	76	192	3
TAP	76	240	0
TAP	76	240	1
TAP	76	288	2
TAP	76	288	3
TAP	77	0	4
TAP	77	24	3
TAP	77	48	4
TAP	77	72	3
STR	77	96	4
SUR	77	96	4	96	72	3
TAP	77	144	2
TAP	77	144	5
STR	77	192	0
SI_	77	192	0	96	48	4
BRK	77	288	0
BRK	78	0	5
BST	78	0	7
SI_	78	0	7	96	48	3
STR	78	96	6
SCL	78	96	6	96	48	3
TAP	78	144	6
STR	78	192	0
SI_	78	192	0	96	48	3
TAP	78	240	0
TAP	78	288	7
TAP	78	336	7
TAP	79	0	0
TAP	79	0	1
TAP	79	96	4
TAP	79	96	5
TAP	79	144	4
TAP	79	144	5
TAP	79	192	0
TAP	79	216	7
TAP	79	240	0
TAP	79	264	7
TAP	79	288	1
TAP	79	312	6
TAP	79	336	1
TAP	80	0	3
TAP	80	0	4
TAP	80	48	5
TAP	80	72	5
TAP	80	120	2
TAP	80	144	2
TAP	80	192	7
TAP	80	216	7
TAP	80	288	2
TAP	80	288	3
TAP	80	336	4
TAP	80	336	5
TAP	81	0	6
TAP	81	0	7
TAP	81	48	1
TAP	81	72	1
TAP	81	120	5
TAP	81	144	5
TAP	81	192	3
TAP	81	192	4
TAP	81	216	3
TAP	81	216	4
BRK	81	288	1
BRK	81	288	6
HLD	82	0	1	96
TAP	82	0	3
TTP	82	96	2	B	0	M1
TTP	82	96	2	E	0	M1
TTP	82	96	3	E	0	M1
TAP	82	192	4
HLD	82	192	6	96
TTP	82	288	5	B	0	M1
TTP	82	288	5	E	0	M1
TTP	82	288	6	E	0	M1
HLD	83	0	1	96
TAP	83	0	3
TTP	83	96	1	B	0	M1
TTP	83	96	1	E	0	M1
TTP	83	96	2	E	0	M1
TAP	83	192	4
HLD	83	192	6	96
TTP	83	288	6	B	0	M1
TTP	83	288	6	E	0	M1
TTP	83	288	7	E	0	M1
STR	84	0	3
SI_	84	0	3	96	48	0
TAP	84	0	4
TAP	84	48	2
TAP	84	96	1
TAP	84	96	3
TAP	84	192	3
STR	84	192	4
SI_	84	192	4	96	48	7
TAP	84	240	5
TAP	84	288	4
TAP	84	288	6
STR	85	0	3
SI_	85	0	3	96	48	6
TAP	85	0	4
TAP	85	48	2
TAP	85	96	1
TAP	85	96	3
TAP	85	192	3
STR	85	192	4
SI_	85	192	4	96	48	1
TAP	85	240	5
TAP	85	288	4
TAP	85	288	6
HLD	86	0	0	96
TAP	86	0	3
TTP	86	96	2	B	0	M1
TTP	86	96	2	E	0	M1
TTP	86	96	3	E	0	M1
TAP	86	192	4
HLD	86	192	7	96
TTP	86	288	5	B	0	M1
TTP	86	288	5	E	0	M1
TTP	86	288	6	E	0	M1
HLD	87	0	0	96
TAP	87	0	3
TTP	87	96	1	B	0	M1
TTP	87	96	1	E	0	M1
TTP	87	96	2	E	0	M1
TAP	87	192	4
HLD	87	192	7	96
TTP	87	288	6	B	0	M1
TTP	87	288	6	E	0	M1
TTP	87	288	7	E	0	M1
TAP	88	0	3
STR	88	0	4
SI_	88	0	4	96	48	0
TAP	88	48	5
TAP	88	96	4
TAP	88	96	6
STR	88	192	3
SI_	88	192	3	96	48	7
TAP	88	192	4
TAP	88	240	2
TAP	88	288	1
TAP	88	288	3
HLD	89	0	1	144
HLD	89	0	5	144
BRK	89	192	1
TAP	89	204	2
TAP	89	216	3
TAP	89	228	4
TAP	89	240	5
TAP	89	252	6
TAP	89	264	7
TAP	89	276	0
BRK	89	288	1
BRK	89	288	5
TAP	90	0	0
TAP	90	0	7
TAP	90	96	2
TAP	90	96	3
TAP	90	144	4
TAP	90	144	5
TAP	90	192	1
TAP	90	192	6
TAP	90	240	5
TAP	90	264	4
TAP	90	288	6
TAP	90	336	2
TAP	90	360	3
TAP	91	0	1
TAP	91	48	0
TAP	91	48	7
TAP	91	96	4
STR	91	96	5
SI_	91	96	5	96	48	0
TAP	91	144	3
TAP	91	144	6
STR	91	192	4
SI_	91	192	4	96	48	1
TAP	91	192	5
TAP	91	288	4
TAP	91	288	5
TAP	92	0	0
TAP	92	0	7
TAP	92	96	2
TAP	92	96	3
TAP	92	144	4
TAP	92	144	5
TAP	92	192	1
TAP	92	192	6
TAP	92	240	2
TAP	92	264	3
TAP	92	288	1
TAP	92	336	5
TAP	92	360	4
TAP	93	0	6
TAP	93	48	2
TAP	93	48	3
TAP	93	96	1
TAP	93	96	4
TAP	93	144	0
TAP	93	144	5
STR	93	192	6
SI_	93	192	6	96	48	3
STR	93	192	7
SI_	93	192	7	96	48	2
TAP	93	240	0
TAP	93	240	5
TAP	93	288	6
TAP	93	288	7
TAP	94	0	4
TAP	94	0	5
TAP	94	72	2
TAP	94	72	3
TAP	94	144	4
TAP	94	144	6
TAP	94	216	1
TAP	94	216	3
BRK	94	288	0
BRK	94	288	7
BRK	94	336	0
BRK	94	336	7
TAP	95	0	4
TAP	95	0	6
TAP	95	72	1
TAP	95	72	3
TAP	95	144	5
TAP	95	144	6
TAP	95	216	1
TAP	95	216	2
BRK	95	288	0
BRK	95	288	7
BRK	95	336	0
BRK	95	336	7
XTP	96	0	1
XTP	96	24	2
XTP	96	48	3
XTP	96	72	4
XTP	96	96	0
XTP	96	120	7
XTP	96	144	6
XTP	96	168	5
TAP	96	192	0
TAP	96	204	1
TAP	96	216	2
TAP	96	228	3
TAP	96	240	4
TAP	96	252	5
TAP	96	264	6
TAP	96	276	7
TAP	96	288	0
TAP	96	300	1
TAP	96	312	2
TAP	96	324	3
TAP	96	336	4
TAP	96	348	5
TAP	96	360	6
TAP	96	372	7
STR	97	0	0
SV_	97	0	0	96	48	3
STR	97	0	4
SV_	97	0	4	96	48	7
THO	97	192	0	96	C	1	M1
BRK	98	0	1
BRK	98	0	6

T_REC_TAP	407
T_REC_BRK	40
T_REC_XTP	16
T_REC_HLD	58
T_REC_XHO	0
T_REC_STR	81
T_REC_BST	5
T_REC_XST	0
T_REC_TTP	99
T_REC_THO	4
T_REC_SLD	88
T_REC_ALL	798
T_NUM_TAP	603
T_NUM_BRK	45
T_NUM_HLD	62
T_NUM_SLD	88
T_NUM_ALL	798
T_JUDGE_TAP	648
T_JUDGE_HLD	225
T_JUDGE_SLD	88
T_JUDGE_ALL	961
TTM_EACHPAIRS	170
TTM_SCR_TAP	301500
TTM_SCR_BRK	117000
TTM_SCR_HLD	62000
TTM_SCR_SLD	132000
TTM_SCR_ALL	612500
TTM_SCR_S	589800
TTM_SCR_SS	608000
TTM_RAT_ACV	10074

