VERSION	0.00.00	1.03.00
FES_MODE	0
BPM_DEF	175.000	175.000	175.000	175.000
MET_DEF	4	4
RESOLUTION	384
CLK_DEF	384
COMPATIBLE_CODE	MA2

BPM	0	0	175.000
MET	0	0	4	4

XTP	2	0	3
XST	2	0	4
SCR	2	0	4	96	1056	3
XTP	5	192	2
XTP	5	192	5
XST	6	0	3
SCL	6	0	3	96	1056	4
XTP	6	0	4
TAP	9	192	2
TAP	9	192	5
TAP	10	0	3
TAP	10	0	4
TAP	10	96	5
HLD	10	144	5	288
TAP	10	240	4
TAP	10	336	4
TAP	11	48	4
TAP	11	144	5
TAP	11	192	4
TAP	11	192	5
TAP	11	288	3
TAP	11	288	5
TAP	12	0	3
TAP	12	0	4
TAP	12	96	2
TAP	12	96	3
TAP	12	144	2
TAP	12	144	3
TAP	12	240	1
TAP	12	240	4
TAP	12	336	2
TAP	12	336	3
TAP	13	48	4
TAP	13	96	4
TAP	13	144	3
TAP	13	192	3
TAP	13	288	2
TAP	13	288	5
TAP	14	0	3
TAP	14	0	4
TAP	14	96	5
HLD	14	144	5	288
TAP	14	240	4
TAP	14	336	4
TAP	15	48	3
TAP	15	144	2
TAP	15	144	4
TAP	15	192	2
TAP	15	192	4
TAP	15	288	3
TAP	15	288	5
HLD	16	0	2	144
TAP	16	96	3
TAP	16	144	3
TAP	16	240	3
TAP	16	240	4
HLD	16	336	2	240
HLD	16	336	5	336
XST	18	0	2
SCR	18	0	2	96	192	5
XTP	18	0	5
TAP	18	192	6
TAP	18	288	6
XST	19	0	2
SCR	19	0	2	96	192	5
XTP	19	0	5
TAP	19	192	6
TAP	19	288	6
XTP	20	0	2
XST	20	0	5
SCL	20	0	5	96	192	2
TAP	20	192	1
TAP	20	288	1
XTP	21	0	2
XST	21	0	5
SCL	21	0	5	96	192	2
TAP	21	192	1
TAP	21	288	1
XHO	22	0	0	96
XHO	22	0	1	96
XHO	22	192	6	96
XHO	22	192	7	96
HLD	23	0	5	96
HLD	23	96	4	96
TAP	23	192	3
XHO	23	288	1	672
XTP	23	288	3
XHO	24	0	5	576
BRK	25	288	0
BRK	25	288	7
XHO	26	0	3	96
XHO	26	0	4	96
TAP	26	192	5
TAP	26	240	5
TAP	26	288	4
XTP	26	336	6
TAP	27	0	2
TAP	27	48	2
TAP	27	96	3
XTP	27	144	1
TAP	27	192	5
TAP	27	240	5
STR	27	288	4
SI_	27	288	4	96	96	0
XTP	27	336	6
TAP	28	192	6
TAP	28	240	6
STR	28	288	0
SCR	28	288	0	96	144	4
XTP	28	336	5
TAP	29	192	5
XTP	29	288	3
XTP	29	288	5
XHO	30	0	3	96
XHO	30	0	4	96
TAP	30	192	2
TAP	30	240	2
TAP	30	288	3
XTP	30	336	1
TAP	31	0	5
TAP	31	48	5
TAP	31	96	4
XTP	31	144	6
HLD	31	192	2	96
STR	31	288	0
SCL	31	288	0	96	144	5
TAP	32	192	4
STR	32	288	4
SCL	32	288	4	96	144	1
TAP	33	192	7
TAP	33	288	0
TAP	33	288	7
XHO	34	0	1	96
XHO	34	0	6	96
TAP	34	192	2
TAP	34	240	2
TAP	34	288	3
XTP	34	336	1
TAP	35	0	6
TAP	35	48	6
TAP	35	96	7
XTP	35	144	5
TAP	35	192	2
TAP	35	240	2
STR	35	288	3
SCR	35	288	3	96	144	7
XTP	35	336	1
TAP	36	192	0
TAP	36	240	0
STR	36	288	7
SI_	36	288	7	96	96	3
XTP	36	336	1
TAP	37	192	2
XTP	37	288	2
XTP	37	288	3
XHO	38	0	3	96
XHO	38	0	4	96
TAP	38	192	6
TAP	38	240	6
TAP	38	288	4
XTP	38	336	7
TAP	39	0	1
TAP	39	48	1
STR	39	96	3
SLR	39	96	3	96	144	7
XTP	39	144	0
HLD	40	0	1	96
HLD	40	96	2	96
TAP	40	192	3
TAP	40	288	3
TAP	40	288	4
HLD	41	0	2	96
HLD	41	0	5	96
TAP	41	192	3
TAP	41	216	4
TAP	41	240	3
TAP	41	264	4
BRK	41	288	3
XHO	42	0	4	96
XHO	42	0	5	96
XTP	42	192	6
XTP	42	192	7
TAP	42	288	5
TAP	42	336	5
TAP	43	0	0
TAP	43	48	6
TAP	43	96	6
TAP	43	144	4
STR	43	192	7
SI_	43	192	7	96	96	3
XTP	44	0	2
XTP	44	96	2
XTP	44	96	3
XTP	44	192	1
XTP	44	192	4
TAP	44	288	2
TAP	44	336	2
TAP	45	0	7
TAP	45	48	1
TAP	45	96	1
TAP	45	144	3
STR	45	192	0
SI_	45	192	0	96	96	4
XTP	46	0	5
XTP	46	96	3
XTP	46	96	5
XTP	46	192	0
XTP	46	192	7
TAP	46	288	1
TAP	46	288	3
TAP	46	336	1
TAP	46	336	3
TAP	47	0	2
TAP	47	48	3
TAP	47	96	4
TAP	47	144	5
HLD	47	192	6	96
STR	47	288	7
SCR	47	288	7	96	144	2
TAP	48	192	3
STR	48	288	3
SCR	48	288	3	96	144	6
TAP	49	192	0
TAP	49	288	0
TAP	49	288	7
THO	50	0	0	576	C	0	M1
TTP	52	0	7	E	0	M1
TTP	52	96	6	E	0	M1
TTP	52	192	4	B	0	M1
TTP	52	192	5	E	0	M1
TTP	53	0	3	E	0	M1
TTP	53	96	2	E	0	M1
TTP	53	192	0	B	0	M1
TTP	53	192	1	E	0	M1
TTP	54	0	6	B	0	M1
TTP	54	96	5	B	0	M1
TTP	54	192	4	B	0	M1
TTP	54	288	3	B	0	M1
TTP	55	0	2	B	0	M1
TTP	55	96	1	B	0	M1
TTP	55	192	0	C	0	M1
TTP	56	0	0	E	0	M1
TTP	56	96	1	E	0	M1
TTP	56	96	7	E	0	M1
TTP	56	192	2	E	0	M1
TTP	56	192	6	E	0	M1
TTP	56	288	3	E	0	M1
TTP	56	288	5	E	0	M1
THO	57	0	0	192	C	0	M1
XHO	58	0	6	144
TAP	58	96	4
TAP	58	144	4
TAP	58	240	3
TAP	58	240	5
TAP	58	336	1
XHO	59	0	1	144
TAP	59	96	3
TAP	59	144	3
TAP	59	240	2
TAP	59	240	4
TAP	59	336	3
TAP	59	336	6
XTP	60	0	3
HLD	60	0	6	144
TAP	60	96	4
TAP	60	144	4
TAP	60	240	2
TAP	60	240	5
TAP	60	336	1
TAP	60	336	4
XHO	61	0	1	144
XTP	61	0	4
TAP	61	96	0
TAP	61	144	0
TAP	61	240	0
TAP	61	240	7
TAP	61	336	1
TAP	61	336	6
XST	62	0	1
SI_	62	0	1	96	48	4
XHO	62	0	6	96
XHO	62	192	2	96
XST	62	192	5
SI_	62	192	5	96	48	0
XST	63	0	1
SI_	63	0	1	96	48	4
XHO	63	0	7	96
XHO	63	192	0	96
XST	63	192	6
SI_	63	192	6	96	48	3
TAP	64	0	2
TAP	64	48	2
TAP	64	96	5
TAP	64	144	5
TAP	64	192	3
TAP	64	216	4
TAP	64	240	3
TAP	64	264	4
TAP	64	288	3
TAP	64	312	4
TAP	64	336	3
TAP	64	360	4
XST	65	0	3
SI_	65	0	3	96	48	0
XST	65	96	4
SI_	65	96	4	96	48	7
TTP	65	192	0	C	0	M1
BRK	65	288	1
BRK	65	288	6
XTP	66	0	2
XTP	66	0	3
TAP	66	96	3
TAP	66	96	6
STR	66	192	5
SI_	66	192	5	96	48	0
TAP	66	240	5
STR	66	288	3
SI_	66	288	3	96	48	1
TAP	66	336	3
STR	67	0	5
SI_	67	0	5	96	48	0
TAP	67	48	5
STR	67	96	3
SI_	67	96	3	96	48	1
TAP	67	144	3
TAP	67	192	7
XTP	67	288	0
XTP	67	288	6
TAP	68	0	0
TAP	68	0	1
TAP	68	48	2
TAP	68	48	7
TAP	68	96	3
TAP	68	96	6
TAP	68	192	6
TAP	68	192	7
TAP	68	240	0
TAP	68	240	5
STR	68	288	1
SCL	68	288	1	96	144	4
TAP	68	288	4
XTP	69	192	7
XTP	69	288	1
XTP	69	288	6
XTP	70	0	4
XTP	70	0	5
TAP	70	96	1
TAP	70	96	4
STR	70	192	2
SI_	70	192	2	96	48	7
TAP	70	240	2
STR	70	288	4
SI_	70	288	4	96	48	6
TAP	70	336	4
STR	71	0	2
SI_	71	0	2	96	48	7
TAP	71	48	2
STR	71	96	4
SI_	71	96	4	96	48	6
TAP	71	144	4
TAP	71	192	0
XTP	71	288	2
XTP	71	288	7
STR	72	0	3
SCL	72	0	3	96	96	0
STR	72	192	7
SCL	72	192	7	96	96	4
HLD	73	0	3	96
TAP	73	96	4
TAP	73	192	3
TAP	73	192	4
TAP	73	240	2
TAP	73	240	5
XST	73	288	1
SI_	73	288	1	96	48	4
XST	73	288	6
SI_	73	288	6	96	48	3
BRK	74	96	1
BRK	74	96	6
STR	74	192	5
SCR	74	192	5	96	48	0
TAP	74	240	5
STR	74	288	3
SI_	74	288	3	96	48	1
TAP	74	336	3
STR	75	0	5
SCR	75	0	5	96	48	0
TAP	75	48	5
STR	75	96	3
SI_	75	96	3	96	48	1
TAP	75	144	3
XTP	75	192	7
BRK	75	288	0
BRK	75	288	6
TAP	76	0	4
TAP	76	0	5
TAP	76	48	3
TAP	76	48	6
TAP	76	96	2
TAP	76	96	7
TAP	76	192	2
TAP	76	192	3
TAP	76	240	1
TAP	76	240	4
STR	76	288	0
SCR	76	288	0	96	144	6
TAP	76	288	5
TAP	77	192	7
XTP	77	288	1
XTP	77	288	6
XTP	78	0	4
XTP	78	0	5
TAP	78	96	1
TAP	78	96	4
STR	78	192	2
SCL	78	192	2	96	48	7
TAP	78	240	2
STR	78	288	4
SI_	78	288	4	96	48	6
TAP	78	336	4
STR	79	0	2
SCL	79	0	2	96	48	7
TAP	79	48	2
STR	79	96	4
SI_	79	96	4	96	48	6
TAP	79	144	4
XTP	79	192	0
BRK	79	288	1
BRK	79	288	7
HLD	80	0	2	96
HLD	80	96	3	96
HLD	80	192	4	96
HLD	80	288	5	96
THO	81	0	0	192	C	0	M1
TAP	81	288	0
TAP	81	288	7
BRK	82	0	2
BRK	82	0	6
TAP	82	96	4
TAP	82	96	5
STR	82	144	4
SI_	82	144	4	96	48	0
TAP	82	144	5
STR	82	240	6
SI_	82	240	6	96	48	2
STR	82	336	1
SI_	82	336	1	96	48	4
HLD	83	48	5	96
TAP	83	144	6
STR	83	192	5
SI_	83	192	5	96	48	1
STR	83	192	6
SI_	83	192	6	96	48	2
BRK	84	0	0
BRK	84	0	3
TAP	84	96	2
TAP	84	96	6
STR	84	144	2
SCL	84	144	2	96	48	7
TAP	84	144	6
STR	84	240	5
SCL	84	240	5	96	48	2
XTP	84	336	0
TAP	85	48	0
TAP	85	48	1
TAP	85	96	2
TAP	85	96	7
TAP	85	144	3
TAP	85	144	6
STR	85	192	4
SF_	85	192	4	96	48	0
TAP	85	192	5
XTP	86	0	2
XTP	86	0	6
TAP	86	96	1
TAP	86	96	3
TAP	86	144	1
STR	86	144	3
SI_	86	144	3	96	48	7
STR	86	240	0
SI_	86	240	0	96	48	4
STR	86	336	6
SI_	86	336	6	96	48	3
HLD	87	48	1	96
TAP	87	144	0
TAP	87	192	0
STR	87	192	1
SCR	87	192	1	96	48	4
BRK	87	288	7
STR	88	0	5
SI_	88	0	5	96	48	0
TAP	88	48	5
STR	88	96	1
SI_	88	96	1	96	48	4
TAP	88	144	1
STR	88	192	6
SI_	88	192	6	96	48	3
TAP	88	240	6
STR	88	288	2
SCL	88	288	2	96	192	4
TTP	89	0	0	C	1	M1
BRK	89	288	0
BRK	89	288	6
TAP	90	0	3
TAP	90	0	5
TAP	90	96	0
TAP	90	96	1
STR	90	144	0
SI_	90	144	0	96	48	4
TAP	90	144	1
STR	90	240	2
SI_	90	240	2	96	48	6
STR	90	336	5
SI_	90	336	5	96	48	0
HLD	91	48	1	96
TAP	91	144	2
STR	91	192	1
SI_	91	192	1	96	48	5
STR	91	192	2
SI_	91	192	2	96	48	6
BRK	92	0	4
BRK	92	0	7
TAP	92	96	2
TAP	92	144	1
STR	92	144	3
SI_	92	144	3	96	48	7
STR	92	240	0
SI_	92	240	0	96	48	5
HLD	92	336	6	96
TAP	93	48	7
TAP	93	96	0
TAP	93	96	5
TAP	93	144	1
TAP	93	144	4
STR	93	192	2
SI_	93	192	2	96	48	5
TAP	93	192	3
BRK	93	288	7
HLD	94	0	4	48
HLD	94	0	6	48
HLD	94	72	3	48
HLD	94	72	5	48
HLD	94	144	2	48
HLD	94	144	4	48
HLD	94	216	1	48
HLD	94	216	3	48
XTP	94	288	0
XTP	94	336	0
HLD	95	0	1	48
HLD	95	0	3	48
HLD	95	72	2	48
HLD	95	72	4	48
HLD	95	144	3	48
HLD	95	144	5	48
HLD	95	216	4	48
HLD	95	216	6	48
BRK	95	288	0
BRK	95	288	7
TAP	96	0	2
TAP	96	48	1
TAP	96	48	3
TAP	96	96	5
TAP	96	144	4
TAP	96	144	6
TAP	96	192	0
TAP	96	216	7
TAP	96	240	0
TAP	96	264	7
TAP	96	288	1
TAP	96	312	6
TAP	96	336	1
TAP	96	360	6
HLD	97	0	2	192
STR	97	192	6
SCL	97	192	6	96	48	3
SCR	97	192	6	96	48	1
TTP	98	0	0	C	1	M1
TTP	98	0	2	B	0	M1
TTP	98	0	6	B	0	M1

T_REC_TAP	261
T_REC_BRK	23
T_REC_XTP	61
T_REC_HLD	40
T_REC_XHO	23
T_REC_STR	56
T_REC_BST	0
T_REC_XST	14
T_REC_TTP	27
T_REC_THO	3
T_REC_SLD	71
T_REC_ALL	579
T_NUM_TAP	419
T_NUM_BRK	23
T_NUM_HLD	66
T_NUM_SLD	71
T_NUM_ALL	579
T_JUDGE_TAP	442
T_JUDGE_HLD	175
T_JUDGE_SLD	71
T_JUDGE_ALL	688
TTM_EACHPAIRS	124
TTM_SCR_TAP	209500
TTM_SCR_BRK	59800
TTM_SCR_HLD	66000
TTM_SCR_SLD	106500
TTM_SCR_ALL	441800
TTM_SCR_S	426350
TTM_SCR_SS	439500
TTM_RAT_ACV	10052

